ワールズエンド・ダンスホール
wowaka

ADVANCED

Level: 7
BPM: 171
Notes: 456

1
口口口口 |----|
口口口口 |----|
口口口口 |----|
口口口口 |----|
2
口口口口 |----|
口口①口 |①---|
口口口口 |----|
口口口口 |----|
3
口口口口 |----|
口口口口 |----|
口口口口 |----|
口口口口 |----|
4
口口口口 |----|
口口口口 |----|
口口口口 |----|
口口口口 |----|
5
口口口口 |----|
口口口口 |----|
口口口口 |----|
口口口口 |----|
6
③口口口 |①--②|
口口②口 |--③-|
①④口口 |--④-|
口⑤口口 |⑤---|
7
口口口③ |①--②|
口②口口 |--③-|
口口④① |--④-|
口口⑤口 |⑤---|
8
③口口口 |①--②|
口口②口 |--③-|
①④口口 |--④-|
口⑤口口 |⑤---|
9
口口口③ |①--②|
口②口口 |--③-|
口口④① |--④-|
口口⑤口 |⑤---|
10
③口口口 |①--②|
口口②口 |--③-|
①④口口 |--④-|
口⑤口口 |⑤---|
11
口口口③ |①--②|
口②口口 |--③-|
口口④① |--④-|
口口⑤口 |⑤---|
12
③口口口 |①--②|
口口②口 |--③-|
①④口口 |--④-|
口⑤口口 |⑤---|
13
口口口③ |①--②|
口②口口 |--③-|
口口④① |--④-|
口口⑤口 |⑤---|
14
口③口口 |①--②|
①口②口 |--③-|
口⑤口口 |--④-|
④口⑥口 |⑤-⑥-|
15
口口③口 |①--②|
口②口① |--③-|
口口⑤口 |--④-|
口⑥口④ |⑤-⑥-|
16
口③口口 |①--②|
①口②口 |--③-|
口⑤口口 |--④-|
④口⑥口 |⑤-⑥-|
17
口口③口 |①--②|
口②口① |--③-|
口口⑤口 |--④-|
口⑥口④ |⑤-⑥-|
18
口③口口 |①--②|
①口②口 |--③-|
口⑤口口 |--④-|
④口⑥口 |⑤-⑥-|
19
口口③口 |①--②|
口②口① |--③-|
口口⑤口 |--④-|
口⑥口④ |⑤-⑥-|
20
口③口口 |①--②|
①口②口 |--③-|
口⑤口口 |--④-|
④口⑥口 |⑤-⑥-|
21
口口③口 |①--②|
口②口① |--③-|
口口⑤口 |--④-|
口口口④ |⑤---|
22
口口口口 |①--②|
①口口② |--③-|
口④⑤⑥ |--④-|
口口③口 |⑤-⑥-|
23
口口①口 |①--②|
②口口口 |--③-|
口口口口 |----|
口③口④ |④---|
24
口口口口 |①--②|
②口口① |--③-|
⑥⑤④口 |--④-|
口③口口 |⑤-⑥-|
25
口①口口 |①--②|
口口口② |--③-|
口口口口 |----|
口口③口 |----|
26
口口口口 |①--②|
①口口② |--③-|
口④⑤⑥ |--④-|
口口③口 |⑤-⑥-|
27
②口口口 |①--②|
口口①口 |--③-|
口口口口 |----|
口③口④ |④---|
28
口口口口 |①--②|
②口口① |--③-|
⑥⑤④口 |--④-|
口③口口 |⑤-⑥-|
29
口①口口 |①---|
口口口② |②---|
口③口口 |③---|
口口口④ |④---|
30
口口口口 |①--②|
①口口② |--③-|
口④⑤⑥ |--④-|
口口③口 |⑤-⑥-|
31
口口①口 |①--②|
②口口口 |--③-|
口口口口 |----|
口③口④ |④---|
32
口口口口 |①--②|
②口口① |--③-|
⑥⑤④口 |--④-|
口③口口 |⑤-⑥-|
33
口口③口 |①---|
口①口口 |②---|
口口口② |③---|
口④口口 |④---|
34
口口口口 |①--②|
①口口② |--③-|
口④⑤⑥ |--④-|
口口③③ |⑤-⑥-|
35
口口①口 |①--②|
②口口口 |--③-|
口口口口 |----|
口③口④ |④---|
36
口口口口 |①--②|
②口口① |--③-|
⑥⑤④口 |--④-|
口③口口 |⑤-⑥-|
37
口口③口 |①---|
口①口② |②---|
口口口口 |③---|
口④口口 |④---|
38
③口口口 |①--②|
口口②口 |--③-|
①④口口 |--④-|
口⑤口口 |⑤---|
39
口口口③ |①--②|
口②口口 |--③-|
口⑥口① |--④-|
口⑤④口 |⑤-⑥-|
40
③口口口 |①--②|
口口②口 |--③-|
①④口口 |--④-|
口⑤口口 |⑤---|
41
口口口③ |①--②|
口②口口 |--③-|
口⑥口① |--④-|
口⑤④口 |⑤-⑥-|
42
③口口口 |①--②|
口口②口 |--③-|
①④口口 |--④-|
口⑤口口 |⑤---|
43
口口口③ |①--②|
口②口口 |--③-|
口⑥口① |--④-|
口⑤④口 |⑤-⑥-|
44
③口口口 |①--②|
口口②口 |--③-|
①④口口 |--④-|
口⑤口口 |⑤---|
45
口口口③ |①--②|
口②口口 |--③-|
口⑥口① |--④-|
口⑤④口 |⑤-⑥-|
46
口口口口 |①--②|
①口口② |--③-|
口④⑤⑥ |--④-|
口口③口 |⑤-⑥-|
47
口口①口 |①--②|
②口口口 |--③-|
口口口口 |--④-|
口③⑤④ |⑤---|
48
口口口口 |①--②|
②口口① |--③-|
⑥⑤④口 |--④-|
口③口口 |⑤-⑥-|
49
③③②② |①--②|
口①口口 |--③-|
口④④口 |----|
口口口口 |④---|
50
口口口口 |①--②|
②口口① |--③-|
⑥⑤④口 |--④-|
③③口口 |⑤-⑥-|
51
口①口口 |①--②|
口口口② |--③-|
口口口口 |----|
④口③口 |④---|
52
口口口口 |①--②|
①口口② |--③-|
口④⑤⑥ |--④-|
口口③口 |⑤-⑥-|
53
口③口口 |①---|
②口①口 |②---|
口口口口 |③---|
口口④口 |④---|
54
口口⑥口 |①-②-|
⑤⑦⑧④ |③-④-|
口③②口 |⑤-⑥-|
①口口口 |⑦-⑧-|
55
口⑥口口 |①-②-|
④⑧⑦⑤ |③-④-|
口②③口 |⑤-⑥-|
口口口① |⑦-⑧-|
56
口口口口 |①-②-|
口口⑧⑦ |③-④-|
④⑤⑥口 |⑤-⑥-|
口③②① |⑦-⑧-|
57
口①④口 |①---|
口口口口 |②---|
②口口③ |③---|
口口口口 |④---|
58
⑥口⑤口 |①-②-|
①口②口 |③-④-|
口③口④ |⑤-⑥-|
⑦口口口 |⑦---|
59
口⑤口⑥ |①-②-|
口②口① |③-④-|
④口③口 |⑤-⑥-|
口口口⑦ |⑦---|
60
口口口口 |①---|
口①口口 |②-③-|
口口口②
口③口口

口口⑥口
口⑤口口
口口④口 |④---|
口口口口 |⑤-⑥-|
61
⑤口口⑤ |①-②-|
①口口① |③-④-|
②④④② |⑤---|
③口口③ |----|
62
口口②② |①---|
口口口口 |②-③-|
①口口③
口口口口

⑤⑤口口
口口口口
⑥口④口 |④---|
口口口口 |⑤-⑥-|
63
口口⑤口 |①-②-|
口口①口 |③-④-|
⑥②口④ |⑤---|
口口③口 |⑥---|
64
口①口口 |①---|
口口②口 |--②-|
口口口口
口口口口

口④口口
口口口口
口③口口 |③---|
口口口口 |--④-|
65
口口口① |①-②-|
③口④口 |③-④-|
口⑤②口 |⑤---|
口口⑥口 |⑥---|
66
②②口口 |①---|
口口口口 |②-③-|
③口口①
口口口口

口口⑤⑤
口口口口
口④口⑥ |④---|
口口口口 |⑤-⑥-|
67
口口口口 |①-②-|
③口②口 |③-④-|
口⑤口⑥ |⑤---|
④口①口 |⑥---|
68
口口①口 |①---|
口②口口 |--②-|
口口口口
口口口口

口口④口
口口口口
口口③口 |③---|
口口口口 |--④-|
69
①⑥口⑤ |①-②-|
口口④口 |③-④-|
口②口③ |⑤---|
口口口口 |⑥---|
70
口口②② |①---|
口口口口 |②-③-|
①口口③
口口口口

⑤⑤口口
口口口口
⑥口④口 |④---|
口口口口 |⑤-⑥-|
71
口口口② |①-②-|
口③①口 |③-④-|
⑥口口④ |⑤---|
口口⑤口 |⑥---|
72
口口⑤口 |①---|
口④①⑥ |--②-|
口口口③ |③-④-|
口②口口 |⑤-⑥-|
73
口口口口 |①---|
口口③口 |②-③-|
②口①口
口口口口

④口口④
口口口口
口⑤⑤口 |④---|
口口口口 |⑤---|
74
口口①口 |①---|
③口口口 |②---|
口口口② |③---|
口④口口 |④---|
75
口③①口 |①-②-|
口口⑥口 |③-④-|
②口口④ |⑤---|
口⑤⑤口 |⑥---|
76
口口④口 |①---|
口口口口 |--②-|
口③口口 |③---|
①口②口 |--④-|
77
口口口口 |①-②-|
①口口① |③-④-|
②④④② |⑤---|
③⑤⑤③ |----|
78
口口口③ |①--②|
口②口口 |--③-|
口口④① |--④-|
口口⑤口 |⑤---|
79
③口口口 |①--②|
口口②口 |--③-|
①④口口 |--④-|
口⑤口口 |⑤---|
80
口口口③ |①--②|
口②口口 |--③-|
口口④① |--④-|
口口⑤口 |⑤---|
81
③口口口 |①--②|
口口②口 |--③-|
①④口口 |--④-|
口⑤口口 |⑤---|
82
口口口③ |①--②|
口②口口 |--③-|
口口④① |--④-|
口口⑤口 |⑤---|
83
③口口口 |①--②|
口口②口 |--③-|
①④口口 |--④-|
口⑤口口 |⑤---|
84
口口口③ |①--②|
口②口口 |--③-|
口口④① |--④-|
口口⑤口 |⑤---|
85
③口口口 |①--②|
口口②口 |--③-|
①④口⑥ |--④-|
口口⑤口 |⑤-⑥-|

不確定度: 0

最終更新:2014年05月21日 18:50