ワールズエンド・ダンスホール
wowaka

EXTREME

Level: 10
BPM: 171
Notes: 818

1
口口口口 |----|
口口口口 |----|
口口口口 |----|
口口口口 |----|
2
口口口口 |----|
口口口口 |①---|
口①口口 |----|
口口口口 |----|
3
口口口口 |----|
口口口口 |----|
口口口口 |----|
口口口口 |----|
4
口口口口 |----|
口口口口 |----|
口口口口 |----|
口口口口 |----|
5
口口口口 |----|
口口口口 |----|
口口口口 |----|
口口口口 |----|
6
③口口口 |①--②|
口③口② |--③-|
①口②口
口①口口

口⑤口④
口口口口
口口口口 |--④-|
口⑤口④ |⑤---|
7
口口口③ |①--②|
②口③口 |--③-|
口②口①
口口①口

④口⑤口
口口口口
口口口口 |--④-|
④口⑤口 |⑤---|
8
③口口口 |①--②|
口③口② |--③-|
①口②口
口①口口

口⑤口④
口口口口
口口口口 |--④-|
口⑤口④ |⑤---|
9
口口口③ |①--②|
②口③口 |--③-|
口②口①
口口①口

④口⑤口
口口口口
口口口口 |--④-|
④口⑤口 |⑤---|
10
③口口口 |①--②|
口③口② |--③-|
①口②口
口①口口

口⑤口④
口口口口
口口口口 |--④-|
口⑤口④ |⑤---|
11
口口口③ |①--②|
②口③口 |--③-|
口②口①
口口①口

④口⑤口
口口口口
口口口口 |--④-|
④口⑤口 |⑤---|
12
③口口口 |①--②|
口③口② |--③-|
①口②口
口①口口

口⑤口④
口口口口
口口口口 |--④-|
口⑤口④ |⑤---|
13
口口口③ |①--②|
②口③口 |--③-|
口②口①
口口①口

④口⑤口
口口口口
口口口口 |--④-|
④口⑤口 |⑤---|
14
③①口口 |①--②|
①口②口 |--③-|
③口①②
口②口口

口⑥口④
⑤口口口
口口⑥口 |--④-|
⑤口口④ |⑤-⑥-|
15
口口①③ |①--②|
口②口① |--③-|
②①口③
口口②口

④口⑥口
口口口⑤
口⑥口口 |--④-|
④口口⑤ |⑤-⑥-|
16
③①口口 |①--②|
①口②口 |--③-|
③口①②
口②口口

口⑥口④
⑤口口口
口口⑥口 |--④-|
⑤口口④ |⑤-⑥-|
17
口口①③ |①--②|
口②口① |--③-|
②①口③
口口②口

④口⑥口
口口口⑤
口⑥口口 |--④-|
④口口⑤ |⑤-⑥-|
18
③①口口 |①--②|
①口②口 |--③-|
③口①②
口②口口

口⑥口④
⑤口口口
口口⑥口 |--④-|
⑤口口④ |⑤-⑥-|
19
口口①③ |①--②|
口②口① |--③-|
②①口③
口口②口

④口⑥口
口口口⑤
口⑥口口 |--④-|
④口口⑤ |⑤-⑥-|
20
③①口口 |①--②|
①口②口 |--③-|
③口①②
口②口口

口⑥口④
⑤口口口
口口⑥口 |--④-|
⑤口口④ |⑤-⑥-|
21
口口①③ |①--②|
口②口① |--③-|
②①口③
口口②口

④口口口
口口口⑤
口口口口 |--④-|
④口口⑤ |⑤---|
22
口①口口 |①--②|
口口口口 |--③-|
③口②口
口口口口

口⑥⑤④
口口口⑤
口口口⑥ |--④-|
口口口口 |⑤-⑥-|
23
③口口口 |①--②|
④②口口 |--③-|
口口②口 |----|
①口口③ |④---|
24
④口①口 |①--②|
口⑤口⑥ |--③-|
口②口③ |--④-|
口⑥口口 |⑤-⑥-|
25
口口口③ |①--②|
口口②口 |--③-|
口②口口 |----|
③口口① |----|
26
口口①口 |①--②|
口口③口 |--③-|
口②口③
口口③口

④⑤⑥口
⑤口口口
⑥口口口 |--④-|
口口口口 |⑤-⑥-|
27
口口口③ |①--②|
口①②④ |--③-|
口②口口 |----|
③口口口 |④---|
28
口①口口 |①--②|
口口口口 |--③-|
③口②口
口口口口

口⑥口④
口口⑤口
口口口⑥ |--④-|
口口口口 |⑤-⑥-|
29
③口口③ |①---|
①口口② |②---|
口口口口 |③---|
④②①④ |④---|
30
口①口口 |①--②|
口口口口 |--③-|
③口②口
口口口口

口⑥⑤④
口口口⑤
口口口⑥ |--④-|
口口口口 |⑤-⑥-|
31
③口口口 |①--②|
④②口口 |--③-|
口口②口 |----|
①口口③ |④---|
32
口口①口 |①--②|
口口口口 |--③-|
口②口③
口口口口

④口⑥口
口⑤口口
⑥口口口 |--④-|
口口口口 |⑤-⑥-|
33
口口口口 |①---|
②口②① |②---|
口口口口
口①口口

口③口③
口口口口
口口口口 |③---|
口④口④ |④---|
34
④口①口 |①--②|
口⑤③⑥ |--③-|
口②口③ |--④-|
口⑥③口 |⑤-⑥-|
35
口口口③ |①--②|
口口②口 |--③-|
口②口口
③口口①

口口口口
口口口口
口口口④ |----|
口口④④ |④---|
36
口①口④ |①--②|
⑥口⑤口 |--③-|
③口②口 |--④-|
口口⑥口 |⑤-⑥-|
37
口口口口 |①---|
口②口② |②---|
口口口口
①口口口

③口③口
口口口口
口口口口 |③---|
④口④口 |④---|
38
⑤④④⑤ |①--②|
口①口① |--③-|
②口②口 |--④-|
口③口③ |⑤---|
39
口⑥口④ |①--②|
⑦①⑤① |--③-|
②⑧②口 |--④⑤|
⑨③口③ |⑥⑦⑧⑨|
40
⑤④④⑤ |①--②|
口①口① |--③-|
②口②口 |--④-|
口③口③ |⑤---|
41
④口⑥口 |①--②|
①⑤①⑦ |--③-|
口②⑧② |--④⑤|
③口③⑨ |⑥⑦⑧⑨|
42
⑤④④⑤ |①--②|
①口①口 |--③-|
口②口② |--④-|
③口③口 |⑤---|
43
口⑥口④ |①--②|
⑦①⑤① |--③-|
②⑧②口 |--④⑤|
⑨③口③ |⑥⑦⑧⑨|
44
⑤④④⑤ |①--②|
口①口① |--③-|
②口②口 |--④-|
口③口③ |⑤---|
45
④口⑥口 |①--②|
①⑤①⑦ |--③-|
口②⑧② |--④⑤|
③口③⑨ |⑥⑦⑧⑨|
46
口①⑤④ |①--②|
口口⑥⑤ |--③-|
②口口口 |--④-|
口口③口 |⑤-⑥-|
47
⑤①口口 |①--②|
口④口口 |--③-|
口③④① |--④-|
②口口⑤ |⑤---|
48
口口①口 |①--②|
口口口口 |--③-|
口口口②
口③口口

④口⑥口
口⑤口口
⑥口口口 |--④-|
口口口口 |⑤-⑥-|
49
口口④③ |①--②|
口口③④ |--③-|
④③①② |----|
③④②② |④---|
50
③①⑤④ |①--②|
口③⑥⑤ |--③-|
口③②口 |--④-|
③口口口 |⑤-⑥-|
51
③口口口 |①--②|
④②口口 |--③-|
①口②口 |----|
口①口③ |④---|
52
口口①口 |①--②|
口口口口 |--③-|
口②口③
口口口口

④口⑥口
口⑤口口
⑥口口口 |--④-|
口口口口 |⑤-⑥-|
53
口口口口 |①---|
②口②① |②---|
口口口口
口①口口

口③口③
口口口口
口口口口 |③---|
口④口④ |④---|
54
口口口口 |①②③④|
口⑥⑦① |⑤⑥⑦⑧|
④⑧口⑤
②口③口

口⑩⑪口
⑫口口⑬
口口⑨口 |⑨⑩⑪⑫|
⑭口口⑮ |⑬⑭⑮-|
55
③⑪⑩② |①②③④|
⑬⑤④⑫ |⑤⑥⑦⑧|
①⑨⑧口 |⑨⑩⑪⑫|
⑮⑦⑥⑭ |⑬⑭⑮-|
56
②⑥⑦① |①②③④|
⑧④③⑨ |⑤-⑥⑦|
⑭⑩⑤⑬ |⑧⑨⑩-|
⑫口口⑪ |⑪⑫⑬⑭|
57
①口口① |①---|
④口口④ |②---|
口③③口 |③---|
口②②口 |④---|
58
⑪①口⑪ |①②③④|
口口②口 |⑤⑥⑦⑧|
③⑦⑩⑥ |⑨-⑩-|
⑤⑨⑧④ |⑪---|
59
⑪口①⑪ |①②③④|
口②口口 |⑤⑥⑦⑧|
⑥⑩⑦③ |⑨-⑩-|
④⑧⑨⑤ |⑪---|
60
口④④口 |①---|
②⑥⑥② |②-③-|
③⑤⑤③ |④---|
①口口① |⑤-⑥-|
61
①⑤⑤① |①-②-|
②口口② |③-④-|
③口口③ |⑤---|
④⑤⑤④ |----|
62
口⑤②口 |①---|
①口口③ |②-③-|
⑥①③④ |④---|
口⑥口口 |⑤-⑥-|
63
④口口① |①-②-|
口②③口 |③-④-|
口①④口
③口口②

口口⑤口
⑤口口⑤
口⑥口⑥ |⑤---|
口口⑤口 |⑥---|
64
口①④① |①---|
口口口④ |--②-|
②口②口 |③---|
③口③口 |--④-|
65
⑤②口⑤ |①-②-|
口③①口 |③-④-|
口④③② |⑤---|
⑥口口⑥ |⑥---|
66
口②⑤口 |①---|
③口口① |②-③-|
④③①⑥ |④---|
口口⑥口 |⑤-⑥-|
67
①口口④ |①-②-|
口③②口 |③-④-|
口④①口
②口口③

口⑤口口
⑤口口⑤
⑥口⑥口 |⑤---|
口⑤口口 |⑥---|
68
①口①口 |①---|
口口口口 |--②-|
口②口②
口口口口

④口口口
口口口口
口口口口 |③---|
口③口③ |--④-|
69
⑥①口⑥ |①-②-|
①⑤⑤③ |③-④-|
口口②④ |⑤---|
口③④口 |⑥---|
70
口⑤②口 |①---|
①口口③ |②-③-|
⑥①③④ |④---|
口⑥口口 |⑤-⑥-|
71
④口口① |①-②-|
口②③口 |③-④-|
口①④口
③口口②

口口⑤口
⑤口口⑤
口⑥口⑥ |⑤---|
口口⑤口 |⑥---|
72
口①口① |①---|
口口②口 |--②-|
口口口口
口口口口

③口⑤⑥
口④口⑤
⑤口④口 |③-④-|
⑥⑤口③ |⑤-⑥-|
73
口①口口 |①---|
口③②口 |②-③-|
口②③①
口口口口

口⑤④口
⑤口口④
④口口⑤ |④---|
口④⑤口 |⑤---|
74
①口口② |①---|
③口口④ |②---|
④口口③ |③---|
②口口① |④---|
75
③口口④ |①-②-|
口①②口 |③-④-|
口②①口
④口口③

口⑤口口
⑤⑥口口
口口⑥⑤ |⑤---|
口口⑤口 |⑥---|
76
口④④口 |①---|
②口①③ |--②-|
③①口② |③---|
口口口口 |--④-|
77
④口口④ |①-②-|
口③③口 |③-④-|
口①①口 |⑤---|
⑤②②⑤ |----|
78
口口口③ |①--②|
②口③口 |--③-|
口②口①
口口①口

④口⑤口
口口口口
口口口口 |--④-|
④口⑤口 |⑤---|
79
③口口口 |①--②|
口③口② |--③-|
①口②口
口①口口

口⑤口④
口口口口
口口口口 |--④-|
口⑤口④ |⑤---|
80
口口口③ |①--②|
②口③口 |--③-|
口②口①
口口①口

④口⑤口
口口口口
口口口口 |--④-|
④口⑤口 |⑤---|
81
③口口口 |①--②|
口③口② |--③-|
①口②口
口①口口

口⑤口④
口口口口
口口口口 |--④-|
口⑤口④ |⑤---|
82
口口口③ |①--②|
②口③口 |--③-|
口②口①
口口①口

④口⑤口
口口口口
口口口口 |--④-|
④口⑤口 |⑤---|
83
③口口口 |①--②|
口③口② |--③-|
①口②口
口①口口

口⑤口④
口口口口
口口口口 |--④-|
口⑤口④ |⑤---|
84
口口口③ |①--②|
②口③口 |--③-|
口②口①
口口①口

④口⑤口
口口口口
口口口口 |--④-|
④口⑤口 |⑤---|
85
③口口口 |①--②|
口③口② |--③-|
①口②口
口①口口

口⑥⑤④
⑥口口口
⑥口口口 |--④-|
口⑥⑤④ |⑤-⑥-|

不確定度: 0

最終更新:2014年05月21日 18:50