裏表ラバーズ
wowaka

BASIC

Level: 4
BPM: 159
Notes: 240

1
口口口口 |----|
口口口口 |----|
口口口口 |----|
口口口口 |----|
2
口口口口 |----|
口口口口 |----|
口口口口 |----|
口口口口 |----|
3
口口口口 |----|
口口口口 |----|
口口口口 |----|
口口口口 |----|
4
口口口口 |----|
口口口口 |----|
口口口口 |----|
口口口口 |----|
5
口口口口 |①---|
口②口口 |----|
口①口口 |②---|
口口口口 |----|
6
口①口口 |①---|
口②口口 |----|
口口口口 |②---|
口口口口 |----|
7
口口口口 |①---|
口口②口 |----|
口口①口 |②---|
口口口口 |----|
8
口口①口 |①---|
口口②口 |----|
口口口口 |②---|
口口口口 |----|
9
口口口口 |①---|
口②口口 |----|
口①口口 |②---|
口口口口 |----|
10
口①口口 |①---|
口②口口 |----|
口口口口 |②---|
口口口口 |----|
11
口口口口 |①---|
口口②口 |----|
口口①口 |②---|
口口口口 |----|
12
口口①口 |①---|
口口②口 |----|
口口口口 |②---|
口口口口 |----|
13
口口口口 |①---|
口口口口 |----|
口口②① |②---|
口口口口 |----|
14
口口口口 |①---|
口口口口 |----|
②①口口 |②---|
口口口口 |----|
15
口口口口 |①---|
口①①口 |----|
口②②口 |②---|
口口口口 |----|
16
口口口口 |①---|
①口口① |----|
②口口② |②---|
口口口口 |----|
17
口口口口 |①---|
口①②口 |----|
口口口口 |②---|
口口口口 |----|
18
①口口① |①---|
②口口② |----|
口口口口 |②---|
口口口口 |----|
19
口口口口 |①---|
口①①口 |----|
口②②口 |②---|
口口口口 |----|
20
口口口口 |①---|
①口口① |----|
②口口② |②---|
口口口口 |----|
21
口口口口 |①---|
口口口口 |----|
口②②口 |②---|
口口①口 |----|
22
口口口口 |①---|
口口口口 |----|
口②②口 |②---|
口①口口 |----|
23
口口口口 |①---|
①口口① |----|
口口口口 |----|
口口口口 |----|
24
口①①口 |①---|
口②②口 |----|
口口口口 |②---|
口口口口 |----|
25
口口口口 |①---|
口②口口 |----|
①口口口 |②---|
口口口口 |----|
26
口口口口 |①---|
口口口② |----|
口口①口 |②---|
口口口口 |----|
27
口口口口 |①---|
口②②口 |----|
口①①口 |②---|
口口口口 |----|
28
②①①② |①---|
口口口口 |----|
口口口口 |②---|
口口口口 |----|
29
口口口口 |①---|
口②口口 |----|
口①口口 |②---|
口口口口 |----|
30
口①口口 |①---|
口②口口 |----|
口口口口 |②---|
口口口口 |----|
31
口口口口 |①---|
口口②口 |----|
口口①口 |②---|
口口口口 |----|
32
口口①口 |①---|
口口②口 |----|
口口口口 |②---|
口口口口 |----|
33
口口口口 |①---|
口②口口 |----|
口①口口 |②---|
口口口口 |----|
34
口①口口 |①---|
口②口口 |----|
口口口口 |②---|
口口口口 |----|
35
口口口口 |①---|
口口②口 |----|
口口①口 |②---|
口口口口 |----|
36
口口①口 |①---|
口口②口 |----|
口口口口 |②---|
口口口口 |----|
37
口口口口 |①---|
口口口口 |②---|
④③②① |③---|
口口口口 |④---|
38
口口口口 |①---|
①②③④ |②---|
口口口口 |③---|
口口口口 |④---|
39
口口口口 |①---|
口口口口 |②---|
④③②① |③---|
口口口口 |④---|
40
口口口口 |①---|
①②③④ |②---|
口口口口 |③---|
口口口口 |④---|
41
口②①口 |①---|
口③④口 |②---|
口口口口 |③---|
口口口口 |④---|
42
口口口口 |①---|
口口口口 |②---|
口②①口 |③---|
口③④口 |④---|
43
口口口口 |①---|
②口口② |----|
①口口① |②---|
口口口口 |----|
44
①口口① |①---|
口②②口 |----|
口口口口 |②---|
口口口口 |----|
45
口口口口 |①---|
口③③口 |②---|
①②口口 |③---|
口口口口 |----|
46
口口口口 |①---|
口③③口 |②---|
口口②① |③---|
口口口口 |----|
47
①①②② |①---|
口口口口 |----|
口口口口 |②---|
口口口口 |----|
48
口口口口 |①---|
口③口① |②---|
④口②口 |③---|
口口口口 |④---|
49
口口口口 |①---|
口口口口 |②---|
口④③口 |③---|
口①②口 |④---|
50
口④③口 |①---|
口①②口 |②---|
口口口口 |③---|
口口口口 |④---|
51
口口口口 |①---|
①口口① |----|
②口口② |②---|
口口口口 |----|
52
②②②② |①---|
口①①口 |----|
口口口口 |②---|
口口口口 |----|
53
口④④口 |①---|
①③口口 |②---|
口②口口 |③---|
口口口口 |④---|
54
口④④口 |①---|
口口③① |②---|
口口②口 |③---|
口口口口 |④---|
55
口④④口 |①---|
①③口口 |②---|
口②口口 |③---|
口口口口 |④---|
56
④口口④ |①---|
口③③① |②---|
口口②口 |③---|
口口口口 |④---|
57
口④④口 |①---|
①③口口 |②---|
口②口口 |③---|
口口口口 |④---|
58
口④④口 |①---|
口口③① |②---|
口口②口 |③---|
口口口口 |④---|
59
口④④口 |①---|
①③口口 |②---|
口②口口 |③---|
口口口口 |④---|
60
④口口④ |①---|
①③③① |②---|
②口口② |③---|
口口口口 |④---|
61
口口④④ |①---|
①口③口 |②---|
口②口口 |③---|
口口口口 |④---|
62
④④口口 |①---|
口③口① |②---|
口口②口 |③---|
口口口口 |④---|
63
口口④④ |①---|
①口③口 |②---|
口②口口 |③---|
口口口口 |④---|
64
④口口④ |①---|
口③③① |②---|
口口②口 |③---|
口口口口 |④---|
65
口口④④ |①---|
①口③口 |②---|
口②口口 |③---|
口口口口 |④---|
66
④④口口 |①---|
口③口① |②---|
口口②口 |③---|
口口口口 |④---|
67
口口④④ |①---|
①口③口 |②---|
口②口口 |③---|
口口口口 |④---|
68
口口口口 |①---|
①④④① |②---|
③②②③ |③---|
口口口口 |④---|
69
①①①① |①---|
口口口口 |----|
口口口口 |----|
口口口口 |----|

不確定度: 0

最終更新:2014年05月21日 18:49