裏表ラバーズ
wowaka

ADVANCED

Level: 8
BPM: 159
Notes: 562

1
口口口口 |----|
口口口口 |----|
口口口口 |----|
口口口口 |----|
2
口口口口 |①---|
口口口口 |----|
口口口口 |②---|
①口口② |----|
3
①①①① |①---|
口口口口 |----|
口口口口 |----|
口口口口 |----|
4
口口口口 |----|
口口口口 |----|
口口口口 |----|
口口口口 |----|
5
①口②口 |①-②-|
③口④口 |③-④-|
⑤口⑥口 |⑤-⑥-|
⑦⑦口口 |⑦---|
6
口②口① |①-②-|
口④口③ |③-④-|
口⑥口⑤ |⑤-⑥-|
口口⑦⑦ |⑦---|
7
①口②口 |①-②-|
③口④口 |③-④-|
⑤口⑥口 |⑤-⑥-|
⑦⑦口口 |⑦---|
8
口②口① |①-②-|
口④口③ |③-④-|
口⑥口⑤ |⑤-⑥-|
口口⑦⑦ |⑦---|
9
①口②口 |①-②-|
③口④口 |③-④-|
⑤口⑥口 |⑤-⑥-|
⑦⑦口口 |⑦---|
10
口②口① |①-②-|
口④口③ |③-④-|
口⑥口⑤ |⑤-⑥-|
口口⑦⑦ |⑦---|
11
①口②口 |①-②-|
③口④口 |③-④-|
⑤口⑥口 |⑤-⑥-|
⑦⑦口口 |⑦---|
12
口②口① |①-②-|
口④口③ |③-④-|
口⑥口⑤ |⑤-⑥-|
口口⑦⑦ |⑦---|
13
口①②口 |①-②-|
口③④口 |③-④-|
口⑤⑥口 |⑤-⑥-|
口⑦⑧口 |⑦-⑧-|
14
①口口② |--①-|
③口口④ |②-③-|
⑤口口⑥ |④-⑤-|
⑦口口口 |⑥-⑦-|
15
口口①① |①---|
②②口口 |②---|
口口③③ |③---|
④④口口 |④---|
16
口口①① |①---|
②②口口 |②---|
口口③③ |③---|
④④口口 |④---|
17
口②①口 |①-②-|
口④③口 |③-④-|
口⑥⑤口 |⑤-⑥-|
口⑧⑦口 |⑦-⑧-|
18
口口口口 |--①-|
②③③② |-②--|
①④④① |③--④|
口⑤⑤口 |--⑤-|
19
①①口口 |①---|
口口②② |②---|
③③口口 |③---|
口口④④ |④---|
20
①①口口 |①---|
口口②② |②---|
③③口口 |③---|
口口④④ |④---|
21
⑥口②⑤ |①-②-|
口①④口 |③-④-|
口③口口 |⑤---|
口口口口 |--⑥-|
22
⑧口口⑧ |①-②-|
③①⑦口 |③-④-|
口④②⑥ |⑤-⑥-|
口口⑤口 |⑦-⑧-|
23
口①口口 |----|
口口②口 |----|
口③口口 |--①-|
口口口口 |②-③-|
24
①口口① |①---|
②口口② |②---|
③口口③ |③---|
④口口④ |④---|
25
口②①口 |①-②-|
④口口③ |③-④-|
口⑥⑤口 |⑤-⑥-|
⑧口口⑦ |⑦-⑧-|
26
口②①口 |--①-|
④口⑦③ |②-③-|
口⑥⑤口 |④-⑤-|
口口口口 |⑥-⑦-|
27
③①①③ |①---|
口口口口 |②---|
②④④② |③---|
口口口口 |④---|
28
口②①口 |①---|
②口口① |----|
③③③③ |②---|
口口口口 |③---|
29
①口②口 |①-②-|
③口④口 |③-④-|
⑤口⑥口 |⑤-⑥-|
⑦⑦口口 |⑦---|
30
口②口① |①-②-|
口④口③ |③-④-|
口⑥口⑤ |⑤-⑥-|
口口⑦⑦ |⑦---|
31
①口②口 |①-②-|
③口④口 |③-④-|
⑤口⑥口 |⑤-⑥-|
⑦⑦口口 |⑦---|
32
口②口① |①-②-|
口④口③ |③-④-|
口⑥口⑤ |⑤-⑥-|
口口⑦⑦ |⑦---|
33
①口②口 |①-②-|
③口④口 |③-④-|
⑤口⑥口 |⑤-⑥-|
⑦⑦口口 |⑦---|
34
口②口① |①-②-|
口④口③ |③-④-|
口⑥口⑤ |⑤-⑥-|
口口⑦⑦ |⑦---|
35
①口②口 |①-②-|
③口④口 |③-④-|
⑤口⑥口 |⑤-⑥-|
⑦⑦口口 |⑦---|
36
口②口① |①-②-|
口④口③ |③-④-|
口⑥口⑤ |⑤-⑥-|
口口⑦⑦ |⑦---|
37
①②口口 |①-②-|
口口④③ |③-④-|
⑤⑥口口 |⑤-⑥-|
口口⑧⑦ |⑦-⑧-|
38
口口⑧⑦ |①-②-|
⑤⑥口口 |③-④-|
口口④③ |⑤-⑥-|
①②口口 |⑦-⑧-|
39
①②口口 |①-②-|
口口④③ |③-④-|
⑤⑥口口 |⑤-⑥-|
口口⑧⑦ |⑦-⑧-|
40
⑥口口⑥ |①-②-|
口⑤⑤口 |③-④-|
口口④③ |⑤---|
①②口口 |⑥---|
41
口②①口 |①-②-|
口④③口 |③-④-|
口⑥⑤口 |⑤-⑥-|
口⑧⑦口 |⑦-⑧-|
42
口⑤⑤口 |①-②-|
④口口③ |③-④-|
②口口① |⑤---|
口⑥⑥口 |⑥---|
43
口口口口 |①---|
口②①③ |--②-|
②口③① |----|
口口口口 |③---|
44
口口口口 |--①-|
①②②口 |②---|
口①口口
口口口口

口口口口
④口口口
口口口口 |③---|
③口口③ |--④-|
45
口②③口 |①-②-|
⑦①④⑤ |③-④-|
口口口口 |⑤--⑥|
口⑥⑥口 |--⑦-|
46
口②③口 |①-②-|
口①④口 |③-④-|
口口口口
口口口口

口口口口
口⑦口⑤
⑦口口口 |⑤--⑥|
口⑥⑥口 |--⑦-|
47
口口口口 |----|
②口①口 |①---|
口②口① |--②-|
口口口口 |----|
48
口④③口 |①-②-|
⑥⑤②① |③-④-|
口⑦⑦口 |⑤-⑥-|
口口口口 |⑦---|
49
②口①口 |①-②-|
口④口③ |③-④-|
⑥口⑤口 |⑤-⑥-|
口⑧口⑦ |⑦-⑧-|
50
口②口① |①-②-|
④口③口 |③-④-|
口⑥口⑤ |⑤-⑥-|
⑧口⑦口 |⑦-⑧-|
51
③①①③ |①---|
口口口口 |②---|
②④④② |③---|
口口口口 |④---|
52
⑦⑦⑦⑦ |①-②-|
口口⑥口 |③-④-|
②⑤口④ |⑤-⑥-|
①口口③ |⑦---|
53
口⑤⑤口 |①-②-|
④⑥⑥② |③-④-|
口③①⑦ |⑤-⑥-|
口⑦口口 |⑦---|
54
口⑤⑤口 |①-②-|
④⑥⑥② |③-④-|
⑦③①口 |⑤-⑥-|
口口⑦口 |⑦---|
55
口⑤⑤口 |①-②-|
④⑥⑥② |③-④-|
口③①⑦ |⑤-⑥-|
口⑦口口 |⑦---|
56
⑥⑥⑤⑤ |①-②-|
④⑦⑦② |③-④-|
⑧③①⑧ |⑤-⑥-|
口口口口 |⑦-⑧-|
57
口⑤⑤口 |①-②-|
④⑥⑥② |③-④-|
⑦③①口 |⑤-⑥-|
口口⑦口 |⑦---|
58
口⑤⑤口 |①-②-|
④⑥⑥② |③-④-|
口③①⑦ |⑤-⑥-|
口⑦口口 |⑦---|
59
⑤口口⑤ |①-②-|
④⑥⑥② |③-④-|
⑦③①⑦ |⑤-⑥-|
口⑧⑧口 |⑦-⑧-|
60
⑦④③⑦ |①-②-|
④⑥⑤③ |③-④-|
⑥②①⑤ |⑤-⑥-|
②口口① |⑦---|
61
口⑥⑤口 |①-②-|
④⑥⑤② |③-④-|
口③①⑦ |⑤-⑥-|
⑦口口口 |⑦---|
62
口⑤⑥口 |①-②-|
④⑤⑥② |③-④-|
⑦③①口 |⑤-⑥-|
口口口⑦ |⑦---|
63
口⑥⑤口 |①-②-|
④⑥⑤② |③-④-|
口③①⑦ |⑤-⑥-|
⑦口口口 |⑦---|
64
⑥⑥⑤⑤ |①-②-|
④⑦⑦② |③-④-|
⑧③①⑧ |⑤-⑥-|
口口口口 |⑦-⑧-|
65
口⑤⑥口 |①-②-|
④⑤⑥② |③-④-|
⑦③①口 |⑤-⑥-|
口口口⑦ |⑦---|
66
口⑥⑤口 |①-②-|
④⑥⑤② |③-④-|
口③①⑦ |⑤-⑥-|
⑦口口口 |⑦---|
67
⑤口口⑤ |①-②-|
④⑥⑥② |③-④-|
⑦③①⑦ |⑤-⑥-|
口⑧⑧口 |⑦-⑧-|
68
⑥②①⑤ |①-②-|
②⑥⑤① |③-④-|
⑧④③⑦ |⑤-⑥-|
④⑧⑦③ |⑦-⑧-|
69
口①①口 |①---|
①口口① |----|
口口口口 |----|
口口口口 |----|

不確定度: 0

最終更新:2014年05月21日 18:48