裏表ラバーズ
wowaka

EXTREME

Level: 10
BPM: 159
Notes: 866

1
口口口口 |----|
口口口口 |----|
口口口口 |----|
口口口口 |----|
2
口口口口 |①---|
口口口口 |----|
口口口口 |②---|
①口口② |----|
3
①口口① |①---|
①口口① |----|
口口口口 |----|
口口口口 |----|
4
①口口② |----|
口口口口 |----|
③口口④ |①-②-|
口口口口 |③-④-|
5
口⑤④⑪ |①②③④|
⑪⑥③口 |⑤⑥⑦⑧|
口②⑦口 |⑨-⑩-|
⑨①⑧⑩ |⑪---|
6
⑪⑤④口 |①②③④|
口⑥③⑪ |⑤⑥⑦⑧|
口②⑦口 |⑨-⑩-|
⑨①⑧⑩ |⑪---|
7
口⑤④⑪ |①②③④|
⑪⑥③口 |⑤⑥⑦⑧|
口②⑦口 |⑨-⑩-|
⑨①⑧⑩ |⑪---|
8
⑪⑤④口 |①②③④|
口⑥③⑪ |⑤⑥⑦⑧|
口②⑦口 |⑨-⑩-|
⑨①⑧⑩ |⑪---|
9
口⑤④⑪ |①②③④|
⑪⑥③口 |⑤⑥⑦⑧|
口②⑦口 |⑨-⑩-|
⑨①⑧⑩ |⑪---|
10
⑪⑤④口 |①②③④|
口⑥③⑪ |⑤⑥⑦⑧|
口②⑦口 |⑨-⑩-|
⑨①⑧⑩ |⑪---|
11
口⑤④⑪ |①②③④|
⑪⑥③口 |⑤⑥⑦⑧|
口②⑦口 |⑨-⑩-|
⑨①⑧⑩ |⑪---|
12
⑪⑤④口 |①②③④|
口⑥③⑪ |⑤⑥⑦⑧|
口②⑦口 |⑨-⑩-|
⑨①⑧⑩ |⑪---|
13
口②③① |①-②③|
口④⑤口 |④⑤⑥⑦|
口⑥⑦①
口口口口

口口口口
⑧口口⑨
⑩口口⑪ |⑧⑨⑩⑪|
⑫⑬⑭口 |⑫⑬⑭-|
14
口①②口 |--①②|
⑨③④⑧ |③④⑤-|
⑦⑤口⑥ |⑥-⑦-|
⑦⑨⑧⑥ |⑧-⑨-|
15
①②④③ |①②③④|
⑬⑤⑦⑮ |⑤⑥⑦⑧|
⑭⑥⑧⑯ |⑨⑩⑪⑫|
⑨⑩⑫⑪ |⑬⑭⑮⑯|
16
①②④③ |①②③④|
⑬⑤⑦⑮ |⑤⑥⑦⑧|
⑭⑥⑧⑯ |⑨⑩⑪⑫|
⑨⑩⑫⑪ |⑬⑭⑮⑯|
17
⑨①②⑩ |①②③④|
⑪③④⑫ |⑤⑥⑦⑧|
⑬⑤⑥⑭ |⑨⑩⑪⑫|
⑮⑦⑧口 |⑬⑭⑮-|
18
口口②口 |--①-|
口①口口 |-②--|
口②口口
口口①口

口③口口
口⑤④口
口口③口 |③--④|
口④⑤口 |--⑤-|
19
③④②① |①②③④|
⑦⑯⑮⑤ |⑤⑥⑦⑧|
⑧⑭⑬⑥ |⑨⑩⑪⑫|
⑪⑫⑩⑨ |⑬⑭⑮⑯|
20
口②①口 |①-②-|
口口口口 |③④⑤⑥|
②口口①
④⑥⑤③

⑬⑫⑪口
口⑩⑨口
口⑧⑦口 |⑦⑧⑨⑩|
口口口口 |⑪⑫⑬-|
21
口口口③ |①-②-|
①④口② |③-④-|
②口④①
③口口口

口⑤口口
口口⑤口
⑦口口⑥ |⑤---|
口⑥⑦口 |⑥-⑦-|
22
口④③口 |①-②-|
③口口④ |③-④-|
口①②口
②口口①

⑧口口⑧
口口⑦口
⑥⑦口⑤ |⑤-⑥-|
口⑤⑥口 |⑦-⑧-|
23
口口①口 |----|
口②口① |----|
③口②口 |--①-|
口③口口 |②-③-|
24
①③④② |①---|
口口口口 |②---|
口口口口 |③---|
②④③① |④---|
25
⑨⑩⑫⑪ |①-②③|
①⑦⑧④ |④-⑤⑥|
④⑦⑧① |⑦-⑧-|
⑤⑥③② |⑨⑩⑪⑫|
26
口⑨⑩口 |--①②|
⑨⑥⑤⑩ |③④⑤⑥|
①⑦⑧④ |⑦-⑧-|
⑦②③⑧ |⑨-⑩-|
27
①③口② |①---|
口口③口 |②---|
②口口① |③---|
口④④口 |④---|
28
③②②③ |①---|
②口口② |----|
③①①③ |②---|
①口口① |③---|
29
口⑤④⑪ |①②③④|
⑪⑥③口 |⑤⑥⑦⑧|
口②⑦口 |⑨-⑩-|
⑨①⑧⑩ |⑪---|
30
⑪⑤④口 |①②③④|
口⑥③⑪ |⑤⑥⑦⑧|
口②⑦口 |⑨-⑩-|
⑨①⑧⑩ |⑪---|
31
口⑤④⑪ |①②③④|
⑪⑥③口 |⑤⑥⑦⑧|
口②⑦口 |⑨-⑩-|
⑨①⑧⑩ |⑪---|
32
⑪⑤④口 |①②③④|
口⑥③⑪ |⑤⑥⑦⑧|
口②⑦口 |⑨-⑩-|
⑨①⑧⑩ |⑪---|
33
口⑤④⑪ |①②③④|
⑪⑥③口 |⑤⑥⑦⑧|
口②⑦口 |⑨-⑩-|
⑨①⑧⑩ |⑪---|
34
⑪⑤④口 |①②③④|
口⑥③⑪ |⑤⑥⑦⑧|
口②⑦口 |⑨-⑩-|
⑨①⑧⑩ |⑪---|
35
口⑤④⑪ |①②③④|
⑪⑥③口 |⑤⑥⑦⑧|
口②⑦口 |⑨-⑩-|
⑨①⑧⑩ |⑪---|
36
⑨①⑤⑬ |①②③④|
⑩②⑥⑭ |⑤⑥⑦⑧|
⑪③⑦⑮ |⑨⑩⑪⑫|
⑫④⑧⑯ |⑬⑭⑮⑯|
37
⑧①①⑧ |①-②③|
⑬⑥⑦⑨ |④⑤⑥⑦|
⑫④⑤⑩ |⑧-⑨⑩|
⑪②③⑪ |⑪-⑫⑬|
38
⑦①①⑧ |①-②③|
⑨⑥②⑩ |④-⑤⑥|
⑪⑤③⑫ |⑦⑧⑨⑩|
⑪④④⑫ |⑪-⑫-|
39
⑤⑥①④ |①-②③|
口②③口 |④-⑤-|
口⑧⑦口 |⑥-⑦⑧|
⑨①⑥⑩ |⑨-⑩-|
40
③④②① |①②③④|
⑫⑦⑤⑫ |⑤⑥⑦⑧|
口⑧⑥口 |⑨⑩⑪-|
⑪⑩⑨口 |⑫---|
41
⑩②①⑨ |①②③④|
⑫④③⑪ |⑤⑥⑦⑧|
⑭⑥⑤⑬ |⑨⑩⑪⑫|
⑯⑧⑦⑮ |⑬⑭⑮⑯|
42
口②①口 |①②③④|
口④③⑨ |⑤⑥⑦⑧|
口⑥⑤⑩ |-⑨⑩-|
⑪⑧⑦口 |⑪---|
43
①③①③ |①--②|
口口口口 |--③-|
②③①口
口口口②

⑤口⑤口
口口口口
⑥口⑤④ |-④--|
④口口⑥ |⑤--⑥|
44
口①口② |--①②|
口③⑥④ |③④⑤-|
口⑤⑧口 |⑥---|
⑥⑦⑥口 |--⑦⑧|
45
③④⑦⑥ |①-②-|
①⑤⑧② |③④⑤⑥|
②⑪⑩① |⑦⑧-⑨|
口⑨⑨口 |--⑩⑪|
46
⑥口④③ |①-②-|
②口⑤① |③④⑤⑥|
①口口②
口口口口

口⑦口口
口⑧口⑩
口口⑪口 |⑦⑧-⑨|
口⑨⑨口 |--⑩⑪|
47
口口口⑤ |-①--|
②口⑥口 |②③-④|
⑦③口口 |--⑤⑥|
①口口④ |-⑦--|
48
①口口口 |①②③④|
⑤②口⑫ |⑤⑥⑦⑧|
⑨⑥③④ |⑨⑩⑪-|
⑩⑪⑦⑧ |⑫---|
49
①③①③ |①-②-|
⑧①③⑥ |③-④-|
④⑤⑦② |⑤-⑥-|
⑤⑦⑤⑦ |⑦-⑧-|
50
①③①③ |①-②-|
口①③口 |③-④-|
④⑧⑦② |⑤-⑥-|
⑥口口⑤ |⑦-⑧-|
51
③①③① |①---|
①③①③ |②---|
口口口口 |③---|
④②②④ |④---|
52
⑦③④⑦ |①-②-|
⑦⑤⑥⑦ |③-④-|
①③④② |⑤-⑥-|
⑤①②⑥ |⑦---|
53
⑧②③⑦ |①-②③|
⑧④⑤⑦ |④⑤⑥-|
口⑥口① |⑦-⑧-|
⑨①①⑨ |⑨---|
54
⑦③②⑧ |①-②③|
⑦⑤④⑧ |④⑤⑥-|
①口⑥口 |⑦-⑧-|
⑨①①⑨ |⑨---|
55
⑨②③⑧ |①-②③|
⑨④⑤⑧ |④⑤⑥⑦|
口⑥⑦① |⑧-⑨-|
⑩①①⑩ |⑩---|
56
口③②口 |①-②③|
口⑤④口 |④⑤⑥⑦|
①⑦⑥口
口①①口

⑧口口口
口口口⑨
⑩口口口 |⑧-⑨-|
口口口⑪ |⑩-⑪-|
57
⑨②③⑧ |①-②③|
⑨④⑤⑧ |④⑤⑥⑦|
口⑥⑦① |⑧-⑨-|
⑩①①⑩ |⑩---|
58
⑧③②⑨ |①-②③|
⑧⑤④⑨ |④⑤⑥⑦|
①⑦⑥口 |⑧-⑨-|
⑩①①⑩ |⑩---|
59
口②③口 |①-②③|
口④⑤口 |④⑤⑥-|
口⑥口①
口①①口

⑧口口⑦
⑧口口⑦
⑩口口⑨ |⑦-⑧-|
⑩口口⑨ |⑨-⑩-|
60
③①①④ |①---|
③口①④ |②---|
口②口口 |③---|
④②②③ |④---|
61
口③②口 |①-②③|
口⑤④口 |④⑤⑥-|
①口⑥口
口①①口

⑧口口⑦
⑦口口⑧
⑨口口口 |⑦-⑧-|
口口口⑨ |⑨---|
62
口②③口 |①-②③|
口④⑤口 |④⑤⑥-|
口⑥口①
口①①口

⑦口口⑧
⑧口口⑦
口口口⑨ |⑦-⑧-|
⑨口口口 |⑨---|
63
口③②口 |①-②③|
口⑤④口 |④⑤⑥⑦|
①⑦⑥口
口①①口

⑨口口⑧
⑧口口⑨
⑩口口口 |⑧-⑨-|
口口口⑩ |⑩---|
64
口②③口 |①-②③|
口④⑤口 |④⑤⑥⑦|
口⑥⑦①
口①①口

口口口⑧
⑨口口口
口口口⑩ |⑧-⑨-|
⑪口口口 |⑩-⑪-|
65
口③②口 |①-②③|
口⑤④口 |④⑤⑥⑦|
①⑦⑥口
口①①口

⑨口口⑧
⑧口口⑨
⑩口口口 |⑧-⑨-|
口口口⑩ |⑩---|
66
口②③口 |①-②③|
口④⑤口 |④⑤⑥⑦|
口⑥⑦①
口①①口

⑧口口⑨
⑨口口⑧
口口口⑩ |⑧-⑨-|
⑩口口口 |⑩---|
67
口③②口 |①-②③|
口⑤④口 |④⑤⑥-|
①口⑥口
口①①口

⑧口口⑦
⑦口口⑧
⑨口口⑩ |⑦-⑧-|
⑩口口⑨ |⑨-⑩-|
68
③①②④ |①---|
④②①③ |②---|
③①②④ |③---|
④②①③ |④---|
69
口①①口 |①---|
口①①口 |----|
口①①口 |----|
口口口口 |----|

不確定度: 0

最終更新:2014年05月21日 18:48