ウェカピポ
SOUL'd OUT

BASIC

Level: 3
BPM: 103.95
Notes: 239

1
口口口口 |----|
口口口口 |----|
口口口口 |----|
口口口口 |----|
2
口口口口 |----|
口口口口 |----|
口口口口 |----|
口口口口 |----|
3
口口口口 |①---|
口口口口 |----|
口①①口 |----|
口口口口 |----|
4
口口口口 |①---|
口①①口 |----|
口口口口 |----|
口口口口 |----|
5
口口口口 |①---|
口口口口 |----|
口①①口 |----|
口口口口 |----|
6
②②②② |①---|
①①①① |--②-|
口口口口 |----|
口口口口 |----|
7
口口口口 |①---|
口①①口 |----|
口口口口 |----|
口口口口 |----|
8
口口口口 |①---|
口口口口 |----|
口①①口 |----|
口口口口 |----|
9
口口口口 |①---|
口口口口 |----|
口口口口 |----|
口①①口 |----|
10
口口口口 |①---|
口③④口 |②---|
口①②口 |③---|
口口口口 |④---|
11
口口口口 |①---|
口②②口 |----|
口①①口 |②---|
口口口口 |----|
12
①①①① |①---|
口②③口 |②---|
口口口口 |③---|
口口口口 |----|
13
口口口口 |①---|
口②②口 |②---|
口口①口
口口口口

口口口口
口④④口
口③口口 |③---|
口口口口 |④---|
14
口口口口 |①---|
口口口口 |②---|
①②③④ |③---|
口口口口 |④---|
15
口口口口 |①---|
口口口口 |----|
口②③口 |②---|
口①①口 |③---|
16
口③②口 |①---|
④口口① |②---|
口口口口 |③---|
口口口口 |④---|
17
口口口口 |①---|
口②口④ |②---|
①口③口 |③---|
口口口口 |④---|
18
口口①口 |①---|
口②②口 |②---|
口口口口
口口口口

口③口口
口④④口
口口口口 |③---|
口口口口 |④---|
19
口口口口 |①---|
④②口④ |②---|
口①③口 |③---|
口口口口 |④---|
20
口口口口 |①---|
口口②口 |②---|
口口①口
口口口口

口口口口
④口口④
口③③口 |③---|
口口口口 |④---|
21
①口口口 |①---|
④②口④ |②---|
口口③口 |③---|
口口口口 |④---|
22
口口口① |①---|
④口②④ |②---|
口③口口 |③---|
口口口口 |④---|
23
口①口口 |①---|
④口②④ |②---|
口③口口 |③---|
口口口口 |④---|
24
口口①口 |①---|
④②口④ |②---|
口口③口 |③---|
口口口口 |④---|
25
①口口① |①---|
口口②口 |②---|
口口口口
口口口口

④口口④
口③口口
口口口口 |③---|
口口口口 |④---|
26
④①①④ |①---|
口②③口 |②---|
口口口口 |③---|
口口口口 |④---|
27
口口口口 |①---|
口②①口 |②---|
口口口口
口口口口

口口口口
口④④口
口③③口 |③---|
口口口口 |④---|
28
①①①① |----|
口口口口 |①---|
口口口口 |----|
口口口口 |----|
29
口口口口 |①---|
②①①② |②---|
③④④③ |③---|
口口口口 |④---|
30
口口口口 |①---|
口口口口 |②---|
口口口口
②①①②

口口口口
口口口口
口③口口 |③---|
口口③口 |----|
31
口口口口 |①---|
②①①② |②---|
③④④③ |③---|
口口口口 |④---|
32
口口口口 |①---|
口口口口 |②---|
口口口口
②①①②

口口口口
口口口口
口④③口 |③---|
口③④口 |④---|
33
口口口口 |①---|
②①①② |②---|
③④④③ |③---|
口口口口 |④---|
34
口口口口 |①---|
口口口口 |②---|
口口口口
②①①②

口口口口
口口口口
口③口口 |③---|
口口③口 |----|
35
口口口口 |①---|
②①①② |②---|
③④④③ |③---|
口口口口 |④---|
36
口口口口 |①---|
口口口口 |②---|
口口口口
②①①②

口口口口
口口口口
口④③口 |③---|
口③④口 |④---|
37
口口口口 |①---|
②②①① |②---|
④④③③ |③---|
口口口口 |④---|
38
口口口口 |①---|
口口口口 |②---|
口口口口
②①①②

口口口口
口口口口
口③口口 |③---|
口口③口 |----|
39
口口口口 |①---|
①①②② |②---|
③③④④ |③---|
口口口口 |④---|
40
口口口口 |①---|
口口口口 |②---|
口口口口
②①①②

口口口口
口口口口
口④③口 |③---|
口③④口 |④---|
41
口口口口 |①---|
②②①① |②---|
④④③③ |③---|
口口口口 |④---|
42
口口口口 |①---|
口口口口 |②---|
口口口口
②①①②

口口口口
口口口口
口③口口 |③---|
口口③口 |----|
43
口口口口 |①---|
①①②② |②---|
③③④④ |③---|
口口口口 |④---|
44
口口口口 |①---|
口口口口 |②---|
口口口口
②①①②

口口口口
口口口口
口④③口 |③---|
口③④口 |④---|
45
口口口口 |①---|
①①①① |----|
口口口口 |----|
口口口口 |----|

不確定度: 0

最終更新:2014年05月21日 18:47