ウェカピポ
SOUL'd OUT

ADVANCED

Level: 7
BPM: 103.95
Notes: 493

1
口口口口 |----|
口口口口 |----|
口口口口 |----|
口口口口 |----|
2
口口口口 |----|
口口口口 |----|
口口口口 |----|
口口口口 |----|
3
口口口口 |①---|
②①①③ |----|
口①①口 |----|
口口口口 |②-③-|
4
口①①口 |①--②|
口口口口 |----|
④②②③ |----|
口口口口 |③-④-|
5
口口口口 |①--②|
口①①口 |----|
③口口④ |----|
口②②口 |③-④-|
6
④④②② |①②--|
①①③③ |--③④|
⑤口口⑤ |----|
口口口口 |--⑤-|
7
口口口口 |①---|
③①①② |----|
口①①口 |----|
口口口口 |②-③-|
8
口②②口 |①--②|
口口口口 |----|
③①①④ |----|
口口口口 |③-④-|
9
口口口口 |①--②|
口①①口 |----|
④口口③ |----|
口②②口 |③-④-|
10
口口①① |①---|
口口口口 |②---|
口②②口
口口口口

③③口口
口口口口
口④④口 |③---|
口口口口 |④---|
11
口口口口 |①-②-|
口口口口 |③-④-|
②④③①
②④③①

口口口口
口口口口
⑥⑧⑦⑤ |⑤-⑥-|
⑥⑧⑦⑤ |⑦-⑧-|
12
①④口① |①-②-|
①②②① |③-④--⑤|
⑤口口③
口口口口

⑦⑨⑨⑦
口口口口
口⑧⑧口 |⑥-⑦-|
口⑥口口 |--⑧--⑨|
13
③口口口 |--①-|
②口口① |②-③---|
口口口口
口口口口

口口口⑦
口口口⑥
⑤口口④ |④-⑤-|
口口口口 |⑥-⑦---|
14
口⑦口⑧ |①-②-|
⑤口⑥口 |③-④-|
口③口④ |⑤-⑥-|
①口②口 |⑦-⑧-|
15
口口口口 |①-②-|
口①②口 |--③-|
口①②口
③口口③

口⑦口口
⑤口⑦⑤
④⑥⑥④ |④-⑤-|
口口口口 |⑥-⑦-|
16
口口口口 |①-②-|
口口口口 |③-④-|
④口③口
口②口①

⑦口口⑦
口⑥口⑤
⑧口口口 |⑤-⑥-|
⑧口口口 |⑦-⑧-|
17
③②⑥④ |①-②-|
③⑥②④ |③-④-|
⑦口口① |⑤-⑥-|
口⑤⑤① |--⑦-|
18
口②②口 |①-②-|
口③③口 |③---|
口口口①
口口口口

④口口④
⑤⑦⑦⑤
⑥口口⑥ |④-⑤-|
口口口口 |⑥-⑦-|
19
⑦⑦⑦⑦ |①-②-|
口⑥口口 |③-④-|
⑤②④口 |⑤-⑥-|
①口口③ |⑦---|
20
⑦⑤⑤⑦ |①-②-|
⑤⑥⑥⑤ |③-④-|
④⑥⑥② |⑤---|
③口口① |⑥-⑦-|
21
⑥④④⑦ |--①-|
②⑥⑦③ |②-③-|
②⑤⑤③ |④-⑤-|
口①①口 |⑥-⑦-|
22
⑦④④⑥ |--①-|
③⑦⑥② |②-③-|
③⑤⑤② |④-⑤-|
口①①口 |⑥-⑦-|
23
⑥④④⑦ |--①-|
②⑥⑦③ |②-③-|
②⑤⑤③ |④-⑤-|
口①①口 |⑥-⑦-|
24
口口口口 |--①-|
④⑥⑥③ |②-③-|
②④③① |④-⑤-|
②⑤⑤① |⑥---|
25
①①①① |①-②-|
口口口口 |③---|
③口口②
③口口②

⑥④④⑥
⑦⑤⑤⑦
口口口口 |④-⑤-|
口口口口 |⑥-⑦-|
26
⑥③③⑥ |①-②-|
⑦④④⑦ |--③-|
①⑤⑤② |④-⑤-|
口①②口 |⑥-⑦-|
27
口口口口 |①-②-|
口口口口 |③-④-|
④口口①
口③②口

口口口口
⑥⑤⑤⑥
⑧口口⑦ |⑤-⑥-|
⑧口口⑦ |⑦-⑧-|
28
②②①① |--①-|
口④③口 |②---|
口③④口 |--③-|
口口口口 |--④-|
29
口①①口 |①-②③|
口口③② |-④⑤⑥|
④口口口
口⑤⑥口

口口⑨口
⑩⑧口口
口⑪⑫⑦ |⑦-⑧⑨|
口口口口 |-⑩⑪⑫|
30
口口口口 |①-②③|
口口⑤① |-④⑤⑥|
②⑥口④
口③口口

⑦口口口
⑦口口口
口口⑩口 |⑦-⑧-|
口⑨口⑧ |⑨⑩--|
31
①⑨口① |①-②③|
②③⑧⑩ |-④⑤⑥|
⑦⑫⑪④ |⑦-⑧⑨|
口⑥⑤口 |-⑩⑪⑫|
32
口口口口 |①-②③|
①⑤口口 |-④⑤⑥|
④口⑥②
口口③口

⑧口口⑦
⑧口口⑦
口口口口 |⑦-⑧-|
⑨⑨⑨⑨ |⑨---|
33
口①①口 |①-②③|
口口③② |-④⑤⑥|
④口口口
口⑤⑥口

口口⑨口
⑩⑧口口
口⑪⑫⑦ |⑦-⑧⑨|
口口口口 |-⑩⑪⑫|
34
口口口口 |①-②③|
口口⑤① |-④⑤⑥|
②⑥口④
口③口口

⑦口口口
⑦口口口
口口⑩口 |⑦-⑧-|
口⑨口⑧ |⑨⑩--|
35
①⑨口① |①-②③|
②③⑧⑩ |-④⑤⑥|
⑦口⑪④ |⑦-⑧⑨|
口⑥⑤口 |-⑩⑪-|
36
口口⑦⑦ |①②③④|
口⑥⑤口 |⑤⑥⑦-|
①口口④
口②③口

⑧⑧口⑫
口口口口
口⑪口口 |⑧-⑨-|
⑩口⑨⑨ |⑩⑪-⑫|
37
口⑨①口 |①-②③|
②③⑧⑩ |-④⑤⑥|
⑦⑫⑪④ |⑦-⑧⑨|
口⑥⑤口 |-⑩⑪⑫|
38
口口口口 |①-②③|
①⑤口口 |-④⑤⑥|
④口⑥②
口口③口

口口口⑦
口口口⑦
口⑩口口 |⑦-⑧-|
⑧口⑨口 |⑨⑩--|
39
①口⑨① |①-②③|
⑩⑧③② |-④⑤⑥|
④⑪⑫⑦ |⑦-⑧⑨|
口⑤⑥口 |-⑩⑪⑫|
40
口口口口 |①-②③|
口口⑤① |-④⑤⑥|
②⑥口④
口③口口

⑦口口⑧
⑦口口⑧
口口口口 |⑦-⑧-|
⑨⑨⑨⑨ |⑨---|
41
口①①口 |①-②③|
②③口口 |-④⑤⑥|
口口口④
口⑥⑤口

口⑨口口
口口⑧⑩
⑦⑫⑪口 |⑦-⑧⑨|
口口口口 |-⑩⑪⑫|
42
口口口口 |①-②③|
①⑤口口 |-④⑤⑥|
④口⑥②
口口③口

口口口⑦
口口口⑦
口⑩口口 |⑦-⑧-|
⑧口⑨口 |⑨⑩--|
43
①口⑨① |①-②③|
⑩⑧③② |-④⑤⑥|
④⑪口⑦ |⑦-⑧⑨|
口⑤⑥口 |-⑩⑪-|
44
⑦⑦口口 |①②③④|
口⑤⑥口 |⑤⑥⑦-|
④口口①
口③②口

口⑫⑧⑧
⑫口口口
口口⑪口 |⑧-⑨-|
⑨⑨口⑩ |⑩⑪-⑫|
45
口口①口 |①---|
口②口① |----|
口口口口 |----|
口口②口 |---②|
46
②口口② |--①-|
口口①口 |----|
②口口② |②---|
口①口口 |----|

不確定度: 0

最終更新:2014年05月21日 18:47