ウェカピポ
SOUL'd OUT

EXTREME

Level: 10
BPM: 103.95
Notes: 793

1
口口口口 |----|
口口口口 |----|
口口口口 |----|
口口口口 |----|
2
⑤①口⑧ |①②③④|
口口口④ |⑤⑥⑦⑧|
③口口口
⑦口②⑥

⑬⑨⑯口
口口口⑫
⑪口口口 |⑨⑩⑪⑫|
口⑮⑩⑭ |⑬⑭⑮⑯|
3
口口口口 |①---|
口①①口 |----|
口①①口
口口口口

口口口口
口口④口
口③口口 |----|
口口②口 |②③④-|
4
①口口口 |①--②|
①口口口 |----|
口口口②
口口口②

口口口口
④口口口
口口口③ |----|
口口口口 |③-④-|
5
口口口① |①--②|
口口口① |----|
②口口口
②口口口

口口口口
口口口④
③口口口 |----|
口口口口 |③-④-|
6
②②④④ |①②--|
①①③③ |--③④|
口口口口
口口口口

口口口口
⑨口口⑨
口⑧⑦口 |----⑤⑥⑦⑧|
⑨⑤⑥⑨ |--⑨-|
7
①①①① |①---|
③口口口 |----|
口口口② |----|
口口口口 |②-③-|
8
②②口① |①--②|
口口口① |----|
口口口口
口口口口

口口口口
口口口④
③口口口 |----|
口口口口 |③-④-|
9
①口口口 |①--②|
①口口口 |----|
③口口② |----|
口④⑤② |③④⑤-|
10
②②①① |①---|
②②①① |②---|
③③④④ |③---|
③③④④ |④---|
11
③④②① |①-②-|
④③①② |③-④-|
②①③④
①②④③

⑦⑧⑥⑤
⑧⑦⑤⑥
⑥⑤⑦⑧ |⑤-⑥-|
⑤⑥⑧⑦ |⑦-⑧-|
12
口④③① |①-②-|
④口⑤③ |③-④--⑤|
②⑤口口
①②口口

⑦口⑩⑦
口⑥口⑩
口口⑥口 |⑥-⑦-|
⑧⑨口口 |--⑧⑨-⑩|
13
口⑤口口 |--①②-③|
⑤口口口 |④-⑤---|
①②④③
口口口口

口⑫口口
⑫口⑪⑩
⑧⑨口口 |⑥⑦⑧⑨-⑩|
口口⑦⑥ |⑪-⑫---|
14
口口⑥口 |①-②③④⑤|
⑨⑤⑧口 |⑥-⑦⑧-⑨|
口口④⑦
②③口①

口⑩口⑲
口⑱⑰口
口⑭⑫⑯ |⑩-⑪⑫⑬⑭|
⑬口⑮⑪ |⑮⑯⑰⑱-⑲|
15
②③①口 |①②③④--|
④口口④ |--⑤⑥-⑦|
口口口⑥
口⑦⑤口

⑪⑬⑬⑩
口⑫⑨口
⑧⑬⑬口 |⑧-⑨⑩-⑪|
口口口口 |⑫-⑬-|
16
口口口⑨ |①--②③④|
④⑤③② |⑤⑥⑦⑧-⑨|
口⑧⑦⑥
①口口①

口⑱⑩口
口⑯⑰口
⑮口口⑮ |⑩-⑪⑫⑬⑭|
⑪⑫⑭⑬ |⑮--⑯⑰⑱|
17
②口①口 |①-②-|
口⑧⑦② |③④⑤⑥⑦⑧|
口②②口
⑤⑥④③

⑪⑫⑨⑩
⑩口口⑬
口⑩⑩口 |⑨-⑩-|
口口口口 |--⑪⑫-⑬|
18
⑪⑦①⑪ |①-②③-④|
⑥③口口 |⑤----⑥|
②⑩⑤⑧ |⑦--⑧-⑨|
⑨口口④ |⑩-⑪-|
19
口⑫⑪⑩ |①②③④⑤⑥|
口⑨⑧⑦ |⑦⑧⑨⑩⑪⑫|
口⑥⑤④
口③②①

⑱口口口
⑲口口⑱
⑯口⑱⑰ |⑬⑭⑮⑯-⑰|
⑬⑭⑮口 |⑱----⑲|
20
⑦⑧口⑨ |①②③④-⑤|
口①⑥口 |⑥-⑦⑧-⑨|
口口口⑤
口④③②

口⑭⑬口
⑩⑬⑭⑩
口⑩⑩口 |⑩----⑪|
⑫⑫⑪⑪ |⑫--⑬-⑭|
21
③口口④ |--①②-③|
⑦口口口 |④-⑤⑥-⑦|
①口口②
⑤口口⑥

⑪⑫⑬⑪
口⑪⑪⑧
⑨⑬⑫⑩ |⑧-⑨⑩--|
口口口口 |⑪--⑫-⑬|
22
④口口③ |--①②-③|
口口口⑦ |④-⑤⑥-⑦|
②口口①
⑥口口⑤

⑪⑭⑬⑩
⑧⑫⑫口
⑨⑬⑭⑨ |⑧--⑨-⑩|
口⑨⑨口 |⑪-⑫⑬-⑭|
23
口口口口 |---①②③|
⑤口口⑥ |④⑤⑥⑦⑧⑨|
③⑦⑧④
①⑨口②

⑬⑮⑯⑫
⑭⑪⑪⑭
口⑯⑮口 |⑩--⑪-⑫|
⑪口⑩⑪ |⑬-⑭⑮-⑯|
24
⑥口口口 |--①-|
口①①口 |②③④⑤-⑥|
④口口⑤
②①①③

口⑨⑩⑦
⑧⑩⑨⑧
⑪口口⑫ |⑦--⑧-⑨|
⑫⑧⑧⑪ |⑩-⑪--⑫|
25
①③⑤① |①--②③④|
②口口④ |⑤---|
口①①口
口口口口

⑨口口⑩
⑨⑪⑪⑩
口⑧⑧口 |⑥-⑦⑧-⑨|
⑥⑪⑪⑦ |⑩-⑪-|
26
口②①口 |①-②-|
口口口口 |---③④⑤|
①⑤口②
①③④②

口⑨⑧⑩
⑦口口⑦
口口⑥口 |⑥--⑦-⑧|
⑩口口口 |⑨-⑩-|
27
口⑩⑪⑫ |①②③④⑤⑥|
口⑦⑧⑨ |⑦⑧⑨⑩⑪⑫|
口④⑤⑥
口①②③

⑬⑰⑰口
⑬口⑯口
⑰⑮口⑰ |⑬--⑭-⑮|
口⑭⑭口 |⑯-⑰-|
28
⑤口口⑥ |①②③-|
①③④② |④-⑤⑥|
⑤④③⑥
①口口②

口口口口
⑦口口⑧
口口口口 |--⑦-|
⑧⑧⑦⑦ |--⑧-|
29
③①②口 |①-②③|
口②①⑤ |-④⑤⑥|
②口⑤①
⑥⑤口④

⑪⑧⑨⑩
⑦⑨⑧⑫
⑨⑦口⑧ |⑦-⑧⑨|
口口⑦口 |-⑩⑪⑫|
30
⑤③⑥口 |①-②③|
①口③⑥ |-④⑤⑥|
口①口②
口口②④

口口口口
⑩⑦口口
⑦⑨⑦⑧ |⑦-⑧-|
⑩⑦口口 |⑨⑩--|
31
口②①③ |①-②③|
⑤①②口 |-④⑤⑥|
①⑤口②
④口⑤⑥

⑩⑨⑧⑪
⑫⑧⑨⑦
⑧口⑦⑨ |⑦-⑧⑨|
口⑦口口 |-⑩⑪⑫|
32
⑧⑥③⑤ |①-②③|
⑥③⑦① |-④⑤⑥|
②⑦①⑦ |⑦-⑧-|
④②⑦⑨ |⑨---|
33
口②①③ |①-②③|
⑤①②口 |-④⑤⑥|
①⑤口②
④口⑤⑥

⑩⑨⑧⑪
⑫⑧⑨⑦
⑧口⑦⑨ |⑦-⑧⑨|
口⑦口口 |-⑩⑪⑫|
34
口⑥③⑤ |①-②③|
⑥③口① |-④⑤⑥|
②口①口
④②口口

口口口口
口口⑦⑩
⑧⑦⑨⑦ |⑦-⑧-|
口口⑦⑩ |⑨⑩--|
35
③①②口 |①-②③|
口②①⑤ |-④⑤⑥|
②口⑤①
⑥⑤口④

⑪⑧⑨⑩
⑦⑨⑧口
⑨⑦口⑧ |⑦-⑧⑨|
口口⑦口 |-⑩⑪-|
36
口口口⑦ |①②③④|
⑥口口⑤ |⑤⑥⑦-|
④⑦口③
②口⑦①

⑧口⑨口
⑪⑨口⑩
口⑫⑧口 |⑧-⑨-|
⑩⑧⑫⑪ |⑩⑪-⑫|
37
③①②口 |①-②③|
口②①⑤ |-④⑤⑥|
②口⑤①
⑥⑤口④

⑪⑧⑨⑩
⑦⑨⑧⑫
⑨⑦口⑧ |⑦-⑧⑨|
口口⑦口 |-⑩⑪⑫|
38
⑤③⑥口 |①-②③|
①口③⑥ |-④⑤⑥|
口①口②
口口②④

口口口口
⑩⑦口口
⑦⑨⑦⑧ |⑦-⑧-|
⑩⑦口口 |⑨⑩--|
39
口②①③ |①-②③|
⑤①②口 |-④⑤⑥|
①⑤口②
④口⑤⑥

⑩⑨⑧⑪
⑫⑧⑨⑦
⑧口⑦⑨ |⑦-⑧⑨|
口⑦口口 |-⑩⑪⑫|
40
⑧⑥③⑤ |①-②③|
⑥③⑦① |-④⑤⑥|
②⑦①⑦ |⑦-⑧-|
④②⑦⑨ |⑨---|
41
口②①③ |①-②③|
⑤①②口 |-④⑤⑥|
①⑤口②
④口⑤⑥

⑩⑨⑧⑪
⑫⑧⑨⑦
⑧口⑦⑨ |⑦-⑧⑨|
口⑦口口 |-⑩⑪⑫|
42
口⑥③⑤ |①-②③|
⑥③口① |-④⑤⑥|
②口①口
④②口口

口口口口
口口⑦⑩
⑧⑦⑨⑦ |⑦-⑧-|
口口⑦⑩ |⑨⑩--|
43
③①②口 |①-②③|
口②①⑤ |-④⑤⑥|
②口⑤①
⑥⑤口④

⑪⑧⑨⑩
⑦⑨⑧口
⑨⑦口⑧ |⑦-⑧⑨|
口口⑦口 |-⑩⑪-|
44
口口口⑦ |①②③④|
⑥口口⑤ |⑤⑥⑦-|
④⑦口③
②口⑦①

⑧口⑨口
⑪⑨口⑩
口⑫⑧口 |⑧-⑨-|
⑩⑧⑫⑪ |⑩⑪-⑫|
45
口口口口 |①---|
②口口口 |----②-|
口口①口
②①口口

口口口③
口口口口
口口⑤③ |----|
口④口口 |-③--④⑤|
46
口口口口 |①②③-|
③①口③ |----|
②口口口
③口口③

④口口④
口④④口
口④④口 |④---|
口口口口 |----|

不確定度: 0

最終更新:2014年05月21日 18:46