Rainstorm of Bullets
THE CLASS ADMIRALS

BASIC

Level: 4
BPM: 162
Notes: 291

1
口口口口 |----|
口口口口 |----|
口口口口 |----|
口口口口 |----|
2
①①①① |①---|
口口口口 |----|
口口口口 |----|
口口口口 |----|
3
口口口口 |①---|
口口口口 |--②-|
①②②① |----|
口口口口 |----|
4
①①①① |①---|
口口口口 |----|
口口口口 |----|
口口口口 |----|
5
口口口口 |①---|
②口口② |--②-|
③①①③ |--③-|
口口口口 |----|
6
①①①① |①---|
口②③口 |②---|
口口口④ |③---|
口口口口 |④---|
7
口口口口 |①---|
口④口口 |②---|
③口口口 |③---|
口②①口 |④---|
8
①①①① |①---|
口③②口 |②---|
④口口口 |③---|
口口口口 |④---|
9
口口口口 |①---|
口口④口 |②---|
口口口③ |③---|
口①②口 |④---|
10
口口口口 |①---|
①口口① |②---|
口④②口 |③---|
口③③口 |④---|
11
口②③口 |①---|
口①④口 |②---|
口口口口 |③---|
口口口口 |④---|
12
口口口口 |①---|
②口口② |--②-|
③①①③ |--③-|
口口口口 |----|
13
③②②③ |①---|
口①①口 |----|
口口口口 |②---|
口口口口 |③---|
14
口口口口 |①---|
口①①口 |----|
口②口口 |②---|
口口口口 |----|
15
口口口口 |①---|
口口口口 |----|
口口口口 |②---|
口①②② |----|
16
口口口口 |①---|
口①①口 |----|
口口②口 |②---|
口口口口 |----|
17
口口口口 |①---|
口口口口 |----|
口口口口 |②---|
②②①口 |----|
18
口口口口 |①---|
口①①口 |----|
口②口口 |②---|
口口口口 |----|
19
口口口口 |①---|
口口口口 |----|
口口口口 |②---|
口①②② |----|
20
口口口口 |①---|
口①①口 |----|
口口②口 |②---|
口口口口 |----|
21
口口口口 |①---|
口口口口 |----|
口口口口 |②---|
②②①口 |----|
22
口口口口 |①---|
②①口口 |----|
口①口口 |②---|
口口口口 |----|
23
口口口口 |①---|
口口口口 |----|
①②口口 |②---|
②口口口 |----|
24
口口口口 |①---|
口口①② |----|
口口①口 |②---|
口口口口 |----|
25
口口口口 |①---|
口口口口 |----|
口口②① |②---|
口口口② |----|
26
口口口口 |①---|
②①口口 |----|
口①口口 |②---|
口口口口 |----|
27
口口口口 |①---|
口口口口 |----|
①②口口 |②---|
②口口口 |----|
28
口口口口 |①---|
口口①② |----|
口口①口 |②---|
口口口口 |----|
29
口口口口 |①---|
口口口口 |----|
口口②① |②---|
口口口② |----|
30
口口口口 |①---|
②口口② |----|
口①口口 |②---|
口口口口 |----|
31
口口口口 |①---|
口口口口 |----|
口口①口 |②---|
口②②口 |----|
32
口口口口 |①---|
②口口② |----|
口①口口 |②---|
口口口口 |----|
33
口口口口 |①---|
口口口口 |----|
口口①口 |②---|
口②②口 |----|
34
口口口口 |①---|
②口口② |----|
口①口口 |②---|
口口口口 |----|
35
口口口口 |①---|
口口口口 |----|
口口①口 |②---|
口②②口 |----|
36
口口口口 |①---|
②口口② |----|
口①口口 |②---|
口口口口 |----|
37
口口口口 |①---|
口口口口 |----|
口口①口 |②---|
口②②口 |----|
38
口口口② |①---|
①口③① |②---|
口④口口 |③---|
口口口口 |④---|
39
口口口口 |①---|
口④③口 |②---|
口口口② |③---|
口口①口 |④---|
40
②口口口 |①---|
口③口口 |②---|
①口④① |③---|
口口口口 |④---|
41
③口口③ |①---|
口口④口 |②---|
②口口口 |③---|
口①口口 |④---|
42
口口口② |①---|
①口③① |②---|
口④口口 |③---|
口口口口 |④---|
43
口口口口 |①---|
口④③口 |②---|
口口口② |③---|
口口①口 |④---|
44
②口口口 |①---|
口③口口 |②---|
①口④① |③---|
口口口口 |④---|
45
③口口③ |①---|
口口④口 |②---|
②口口口 |③---|
口①口口 |④---|
46
口口口口 |①---|
①口口① |----|
口②②口 |②---|
口口口口 |----|
47
口口口口 |①---|
口②②口 |----|
口口口口 |②---|
①口口① |----|
48
口口口口 |①---|
口口口口 |----|
①口口① |②---|
口②②口 |----|
49
口口口口 |----|
①口口① |----|
口口口口 |①---|
口口口口 |----|
50
①口口① |①---|
②口口② |----|
口口口口 |②---|
口口口口 |----|
51
口口口口 |①---|
口口口口 |----|
①口口① |②---|
②口口② |----|
52
口①①口 |①---|
②口口② |----|
口口口口 |②---|
口口口口 |----|
53
口②②口 |①---|
口口口口 |----|
口①①口 |②---|
口口口口 |----|
54
①口③① |①---|
口②口④ |②---|
口口口口 |③---|
口口口口 |④---|
55
口口口口 |①---|
口口口口 |②---|
④口口① |③---|
口③②口 |④---|
56
口②口④ |①---|
①口③口 |②---|
口口口口 |③---|
口口口口 |④---|
57
口口口口 |①---|
④口口① |②---|
口③②口 |③---|
口口口口 |④---|
58
①口③① |①---|
口②口④ |②---|
口口口口 |③---|
口口口口 |④---|
59
口口口口 |①---|
口口口口 |②---|
④口口① |③---|
口③②口 |④---|
60
口②口口 |①---|
①口③④ |②---|
口口口口 |③---|
口口口口 |④---|
61
口口④口 |①---|
③口②③ |②---|
口①①口 |③---|
口口口口 |④---|
62
①③口① |①---|
④口②口 |②---|
口口口口 |③---|
口口口口 |④---|
63
口口口口 |①---|
口口口口 |②---|
①口口④ |③---|
口②③口 |④---|
64
④口②口 |①---|
口③口① |②---|
口口口口 |③---|
口口口口 |④---|
65
口口口口 |①---|
①口口④ |②---|
口②③口 |③---|
口口口口 |④---|
66
①③口① |①---|
④口②口 |②---|
口口口口 |③---|
口口口口 |④---|
67
口口口口 |①---|
口口口口 |②---|
①口口④ |③---|
口②③口 |④---|
68
口口②口 |①---|
①口口① |②---|
口口口口
口口口口

口口口口
④③口口
口口口口 |③---|
口口口口 |④---|
69
口口口口 |①---|
口②②口 |----|
口①①口 |②---|
口口口口 |----|
70
①①①① |①---|
口口口口 |----|
口口口口 |----|
口口口口 |----|
71
口口口口 |①---|
口口口口 |--②-|
①②②① |----|
口口口口 |----|
72
①①①① |①---|
口口口口 |----|
口口口口 |----|
口口口口 |----|
73
口口口口 |①---|
②口口② |--②-|
③①①③ |--③-|
口口口口 |----|

不確定度: 0

最終更新:2014年05月21日 18:46