Rainstorm of Bullets
THE CLASS ADMIRALS

ADVANCED

Level: 8
BPM: 162
Notes: 548

1
口口口口 |----|
口口口口 |----|
口口口口 |----|
口口口口 |----|
2
口口口口 |①---|
口口口口 |----|
口①①口 |----|
口①①口 |----|
3
①口口② |①---|
①口口② |--②-|
②口口① |----|
②口口① |----|
4
口口口口 |①---|
口口口口 |----|
口①①口 |----|
口①①口 |----|
5
②③③② |①---|
②③③② |--②-|
①口口① |--③-|
①口口① |----|
6
②口口② |①---|
口口口口 |--②-|
口①①口
口①①口

口口口口
口③③口
口④④口 |----|
口口口口 |③-④-|
7
②④④② |--①-|
①③③① |-②--|
⑤口口⑤ |③--④|
口口口口 |--⑤-|
8
②口口② |①---|
口口口口 |--②-|
口①①口
口①①口

口口口口
口③③口
口④④口 |----|
口口口口 |③-④-|
9
②④④② |--①-|
①③③① |-②--|
⑤口口⑤ |③--④|
口口口口 |--⑤-|
10
②口口② |①---|
口口口口 |--②-|
口①①口
口①①口

口口口口
口③③口
口④④口 |----|
口口口口 |③-④-|
11
②④④② |--①-|
①③③① |-②--|
⑤口口⑤ |③--④|
口口口口 |--⑤-|
12
②口口② |①---|
②口口② |--②-|
③①①③ |--③-|
③①①③ |----|
13
③口口③ |①---|
②①①② |----|
口①①口 |②---|
口口口口 |③---|
14
口①①口 |①---|
口⑥⑤口 |②-③-|
口③③④ |--④-|
②口口口 |⑤-⑥-|
15
口口口口 |--①-|
②口口④ |---②----|
口③口口 |③--④|
口⑤①口 |--⑤-|
16
口①①口 |①---|
口⑤⑥口 |②-③-|
④③③口 |--④-|
口口口② |⑤-⑥-|
17
口口口口 |--①-|
④口口② |---②----|
口口③口 |③--④|
口①⑤口 |--⑤-|
18
口①①口 |①---|
口⑥⑤口 |②-③-|
口③③④ |--④-|
②口口口 |⑤-⑥-|
19
口口口口 |--①-|
②口口④ |---②----|
口③口口 |③--④|
口⑤①口 |--⑤-|
20
口①①口 |①---|
口⑤⑥口 |②-③-|
④③③口 |--④-|
口口口② |⑤-⑥-|
21
口②④口 |①-②-|
口口口口 |③-④-|
⑤⑥⑦⑧ |⑤⑥⑦⑧|
口①③口 |----|
22
口口口口 |①---|
口①①口 |②-③-|
口③③口
②口口口

口口口口
口⑥⑤口
口口口④ |--④-|
口口口口 |⑤-⑥-|
23
口口口口 |--①-|
②口口④ |---②----|
口③口口 |③--④|
口⑤①口 |--⑤-|
24
口①①口 |①---|
口⑤⑥口 |②-③-|
④③③口 |--④-|
口口口② |⑤-⑥-|
25
口口口口 |--①-|
④口口② |---②----|
口口③口 |③--④|
口①⑤口 |--⑤-|
26
②口③③ |①---|
口⑥⑤口 |②-③-|
①①口④ |--④-|
口口口口 |⑤-⑥-|
27
口口口口 |--①-|
②口口④ |---②----|
口③口口 |③--④|
口⑤①口 |--⑤-|
28
③③口② |①---|
口⑤⑥口 |②-③-|
④④①① |--④-|
口口口口 |⑤-⑥-|
29
口②④口 |①-②-|
口口口口 |③-④-|
⑤⑥⑦⑧ |⑤⑥⑦⑧|
口①③口 |----|
30
③口口③ |①---|
口③③口 |②-③-|
口④④口 |----|
①②②① |④---|
31
口③③口 |①---|
③口口③ |②-③-|
①④④① |----|
口②②口 |④---|
32
③口口③ |①---|
口③③口 |②-③-|
①④④① |----|
口②②口 |④---|
33
口③③口 |①---|
③口口③ |②-③-|
①④④① |----|
口②②口 |④---|
34
③口口③ |①---|
口③③口 |②-③-|
①④④① |----|
口②②口 |④---|
35
口③③口 |①---|
③口口③ |②-③-|
①④④① |----|
口②②口 |④---|
36
③口口③ |①---|
口③③口 |②-③-|
①④④① |----|
口②②口 |④---|
37
口③③口 |①---|
③口口③ |②-③-|
①④④① |----|
口②②口 |④---|
38
④③②① |①---|
口口①口 |②---|
口口口口 |③---|
①②③④ |④---|
39
口口④③ |①---|
①口口② |②---|
②口口① |③---|
③④口口 |④---|
40
①②③④ |①---|
口①口口 |②---|
口口口口 |③---|
④③②① |④---|
41
③口口口 |①---|
②③口① |②---|
①口口② |③---|
口口口③ |----|
42
④③②① |①---|
口口①口 |②---|
口口口口 |③---|
①②③④ |④---|
43
口口④③ |①---|
①口口② |②---|
②口口① |③---|
③④口口 |④---|
44
①②③④ |①---|
口①口口 |②---|
口口口口 |③---|
④③②① |④---|
45
③口口口 |①---|
②③口① |②---|
①口口② |③---|
口口口③ |----|
46
口①口① |①---|
口口口口 |--②-|
口②口② |----|
口口口口 |----|
47
口口口口 |①--②|
口⑥③口 |--③-|
口⑤②口 |④--⑤|
口④①口 |--⑥-|
48
①口口① |①---|
口口口口 |--②-|
②口口② |----|
口口口口 |----|
49
口①①口 |----|
口口口口 |----|
口口口口 |①---|
口口口口 |----|
50
口口口口 |①--②|
①口口④ |--③-|
②口口⑤ |④--⑤|
③口口⑥ |--⑥-|
51
口口口口 |①--②|
口①④口 |--③-|
口②⑤口 |④--⑤|
口③⑥口 |--⑥-|
52
口①④口 |①--②|
口②⑤口 |--③-|
口③⑥口 |④--⑤|
口口口口 |--⑥-|
53
口口口口 |①--②|
③口口⑥ |--③-|
②口口⑤ |④--⑤|
①口口④ |--⑥-|
54
口①④① |①---|
口⑤口口 |②-③-|
口口②口 |--④-|
口③口口 |⑤---|
55
⑤口⑦口 |①-②-|
口⑥口口 |③-④-|
口②③口 |--⑤-|
①口口④ |⑥-⑦-|
56
口①口① |①---|
口口口口 |②-③-|
口口②口
口③口③

口⑤④口
口口口口
口口口口 |--④-|
口口口口 |⑤---|
57
⑤口⑦口 |①-②-|
口⑥口口 |③-④-|
①口③口 |--⑤-|
口②口④ |⑥-⑦-|
58
口①④① |①---|
口⑤口口 |②-③-|
口①②① |--④-|
口③口口 |⑤---|
59
⑤口⑦口 |①-②-|
口⑥口口 |③-④-|
口②③口 |--⑤-|
①口口④ |⑥-⑦-|
60
口①口① |①---|
口口口口 |②-③-|
口口②口
口③口③

口⑤④口
口口口口
口口口口 |--④-|
口口口口 |⑤---|
61
⑤口⑦口 |①-②-|
口⑥口口 |③-④-|
①口③口 |--⑤-|
口②口④ |⑥-⑦-|
62
口①④① |①---|
口⑤口口 |②-③-|
口①②① |--④-|
口③口口 |⑤---|
63
⑤口⑦口 |①-②-|
口⑥口口 |③-④-|
口②③口 |--⑤-|
①口口④ |⑥-⑦-|
64
口①口① |①---|
口口口口 |②-③-|
口口②口
口③口③

口⑤④口
口口口口
口口口口 |--④-|
口口口口 |⑤---|
65
⑤口⑦口 |①-②-|
口⑥口口 |③-④-|
①口③口 |--⑤-|
口②口④ |⑥-⑦-|
66
口①④① |①---|
口⑤口口 |②-③-|
口口②口 |--④-|
口③口③ |⑤---|
67
⑤口⑦口 |①-②-|
口⑥口口 |③-④-|
口②③口 |--⑤-|
①口口④ |⑥-⑦-|
68
口①口① |①---|
口口口口 |②-③-|
口①②①
口③口口

口⑤④口
口口口口
口口口口 |--④-|
口口口口 |⑤---|
69
⑦口口⑧ |①-②-|
①⑤⑥② |③-④-|
③口口④ |⑤-⑥-|
口口口口 |⑦-⑧-|
70
口口口口 |①---|
口口口口 |----|
口①①口 |----|
口①①口 |----|
71
①口口② |①---|
①口口② |--②-|
②口口① |----|
②口口① |----|
72
口口口口 |①---|
口口口口 |----|
口①①口 |----|
口①①口 |----|
73
②③③② |①---|
②③③② |--②-|
①口口① |--③-|
①口口① |----|

不確定度: 0

最終更新:2014年05月21日 18:45