Rainstorm of Bullets
THE CLASS ADMIRALS

EXTREME

Level: 10
BPM: 162
Notes: 903

1
口口口口 |----|
口口口口 |----|
口口口口 |----|
口口口口 |----|
2
口①口口 |①---|
口口口① |----|
①口口口 |----|
口口口① |----|
3
①口口② |①---|
②口④① |--②-|
①③口② |----|
口②①口 |--③④|
4
口①口口 |①---|
口口口① |----|
①口口口 |----|
口口口① |----|
5
①口③② |①---|
①口③② |--②-|
②③口① |--③-|
③①②口 |----|
6
②①口口 |①-②③|
①③口口 |④-⑤-|
口口④①
⑤⑤口①

⑩口口⑥
口口⑦口
口⑧口口 |⑥⑦⑧-|
口口口⑨ |⑨-⑩-|
7
口口③⑤ |①-②-|
③②⑤① |-③--|
①⑥②口 |④--⑤|
④④⑦口 |--⑥⑦|
8
②①口口 |①-②③|
口③口① |④-⑤-|
①口④口
⑤⑤口①

⑩口口⑥
口口⑦口
口⑧口口 |⑥⑦⑧-|
口口口⑨ |⑨-⑩-|
9
口①③口 |①-②-|
③②口① |-③--|
①口②③
口③①口

口口口⑤
口口口口
口⑥口口 |④--⑤|
④口⑥口 |--⑥-|
10
②①口口 |①-②③|
口③口① |④-⑤-|
①口④口
⑤⑤口①

⑩口口⑥
口口⑦口
口⑧口口 |⑥⑦⑧-|
口口口⑨ |⑨-⑩-|
11
口①③口 |①-②-|
③②口① |-③--|
①口②③
口③①口

口口口⑤
口口口口
口⑥口口 |④--⑤|
④口⑦口 |--⑥⑦|
12
②①口口 |①-②③|
口③口① |④-⑤-|
①口④口
⑤⑤口①

⑩口口⑥
口口⑦口
口⑧口口 |⑥⑦⑧-|
口口口⑨ |⑨-⑩-|
13
③①口③ |①---|
口口③① |----|
①②口口 |②---|
②口①② |③---|
14
口口①口 |①---|
口口口③ |②-③-|
①口①②
口③②③

口④口口
④⑤⑥口
口⑥⑤口 |--④-|
口口口口 |⑤-⑥-|
15
口③②⑤ |①-②-|
③④⑤② |---③----|
①⑥④① |④--⑤|
⑥口口口 |--⑥-|
16
①④①口 |①---|
④⑤⑥③ |②-③-|
①⑥⑤② |--④-|
口③②③ |⑤-⑥-|
17
口③②⑤ |①-②-|
③④⑤② |---③----|
①⑥④① |④--⑤|
⑥口口口 |--⑥-|
18
①④①口 |①---|
④⑤⑥③ |②-③-|
①⑥⑤② |--④-|
口③②③ |⑤-⑥-|
19
口③②⑤ |①-②-|
③④⑤② |---③----|
①⑥④① |④--⑤|
⑥口口口 |--⑥-|
20
①④①口 |①---|
④⑤⑥③ |②-③-|
①⑥⑤② |--④-|
口③②③ |⑤-⑥-|
21
口口②⑨ |①-②-|
⑥⑦⑧② |③④⑤-|
①⑩口① |⑥⑦⑧⑨|
⑩⑤④③ |--⑩-|
22
①④①⑤ |①---|
④③⑥③ |②-③-|
①⑥①② |--④-|
⑤③②③ |⑤-⑥-|
23
口③②⑤ |①-②-|
③④⑤② |---③----|
①⑥口① |④--⑤|
⑥④口口 |--⑥-|
24
①④①⑤ |①---|
④③⑥③ |②-③-|
①⑥①② |--④-|
⑤③②③ |⑤-⑥-|
25
口③②⑤ |①-②-|
③④⑤② |---③----|
①⑥口① |④--⑤|
⑥④口口 |--⑥-|
26
①④①⑤ |①---|
④③⑥③ |②-③-|
①⑥①② |--④-|
⑤③②③ |⑤-⑥-|
27
口③②⑤ |①-②-|
③④⑤② |---③----|
①⑥口① |④--⑤|
⑥④口口 |--⑥-|
28
①④①⑤ |①---|
④③⑥③ |②-③-|
①⑥①② |--④-|
⑤③②③ |⑤-⑥-|
29
口口②⑨ |①-②-|
⑥⑦⑧② |③④⑤-|
①⑩口① |⑥⑦⑧⑨|
⑩⑤④③ |--⑩-|
30
④④③口 |①-②-|
④④口③ |③-④-|
②⑥②① |⑤---|
⑥⑤⑤① |⑥---|
31
⑥⑤⑤① |①-②-|
②⑥②① |③-④-|
③口④④ |⑤---|
口③④④ |⑥---|
32
口③④④ |①-②-|
③口④④ |③-④-|
①②⑥② |⑤---|
①⑤⑤⑥ |⑥---|
33
①⑤⑤⑥ |①-②-|
①②⑥② |③-④-|
④④口③ |⑤---|
④④③口 |⑥---|
34
④④③口 |①-②-|
④④口③ |③-④-|
②⑥②① |⑤---|
⑥⑤⑤① |⑥---|
35
⑥⑤⑤① |①-②-|
②⑥②① |③-④-|
③口④④ |⑤---|
口③④④ |⑥---|
36
口③④④ |①-②-|
③口④④ |③-④-|
①②⑥② |⑤---|
①⑤⑤⑥ |⑥---|
37
①⑤⑤⑥ |①-②-|
①②⑥② |③-④-|
④④口③ |⑤---|
④④③口 |⑥---|
38
①口口口 |①-②-|
口①口② |③④⑤-|
③④①口
口口⑤口

⑨口口⑦
⑥⑩⑧口
口口口口 |⑥-⑦⑧|
口口口口 |-⑨⑩-|
39
口口⑤口 |①-②-|
口口口口 |③④-⑤|
口口④①
口②口③

口口口⑥
⑦口口口
口⑧口⑨ |⑥-⑦⑧|
口口⑩口 |-⑨⑩-|
40
①口口口 |①-②③|
口①口① |-④⑤-|
口口⑤口
②③口④

口口⑧⑦
⑥口⑫⑪
⑨⑩口口 |⑥-⑦⑧|
口口口口 |⑨⑩⑪⑫|
41
口⑥口⑥ |①②③-|
⑥口口口 |④⑤--|
口口⑤④ |⑥---|
①②③口 |----|
42
①口①口 |①-②-|
口①口② |③④⑤-|
③④口口
口口⑤口

⑨口口⑦
⑥⑩⑧口
口口口口 |⑥-⑦⑧|
口口口口 |-⑨⑩-|
43
口口⑤口 |①-②-|
口口口口 |③④-⑤|
口口④①
口②口③

口口口⑥
⑦口口口
口⑧口⑨ |⑥-⑦⑧|
口口⑩口 |-⑨⑩-|
44
①口口口 |①-②③|
口①口① |-④⑤-|
口口⑤口
②③口④

口口⑧⑦
⑥口⑫⑪
⑨⑩口口 |⑥-⑦⑧|
口口口口 |⑨⑩⑪⑫|
45
口⑥口⑥ |①②③-|
⑥口口口 |④⑤--|
口口⑤④ |⑥---|
①②③口 |----|
46
①⑤①⑤ |①-②③|
口口口口 |④-⑤-|
②③④口
口①口①

口口口口
口⑦口⑧
口口口⑨ |⑥-⑦-|
口口⑥⑩ |⑧⑨⑩-|
47
口②①口 |①--②|
②⑥③④ |--③-|
①③⑥⑤ |④--⑤|
口④⑤口 |--⑥-|
48
②①②① |①---|
①口口② |--②-|
口口口口
①口口②

口口口口
⑤口④口
⑥口口口 |③-④-|
⑦③口口 |⑤⑥⑦-|
49
④⑤⑥口 |①②③-|
口口口口 |④⑤⑥-|
口③②①
口口口口

口口口⑧
口⑦⑨⑦
口⑩口口 |⑦---|
口⑦口⑦ |⑧⑨⑩-|
50
①②③口 |①--②|
②④口⑥ |--③-|
③口①⑤ |④--⑤|
口⑥⑤④ |--⑥-|
51
口口③② |①--②|
口口①口 |--③-|
③①口口
②口口口

④⑤口口
⑤④⑥口
口⑥口口 |④--⑤|
口口口口 |--⑥-|
52
④⑤⑥口 |①--②|
⑤④口③ |--③-|
⑥口②① |④--⑤|
口③①② |--⑥-|
53
口⑥⑤① |①--②|
⑥口口④ |--③-|
⑤口③② |④--⑤|
①④②③ |--⑥-|
54
①口④⑤ |①---|
口①⑥③ |②-③-|
④⑥②① |④-⑤-|
⑤③口② |⑥---|
55
口②③口 |①-②-|
①口口④ |③-④-|
④口口①
口③②口

口⑦口⑥
口口⑤口
口⑤口口 |--⑤-|
⑥口⑦口 |⑥-⑦-|
56
①口④⑤ |①---|
口①⑥③ |②-③-|
④⑥②口 |④-⑤-|
⑤③口② |⑥---|
57
口②③⑥ |①-②-|
①④⑤口 |③-④-|
⑥⑤④① |--⑤-|
⑥③②口 |⑥---|
58
①①④⑤ |①---|
口口⑥③ |②-③-|
④⑥②① |④-⑤-|
⑤③①② |⑥---|
59
口②③口 |①-②-|
①口口④ |③-④-|
④口口①
口③②口

口口口⑥
⑦口⑤口
口⑤口⑦ |--⑤-|
⑥口口口 |⑥-⑦-|
60
①口④⑤ |①---|
口①⑥③ |②-③-|
④⑥②口 |④-⑤-|
⑤③口② |⑥---|
61
①②⑥④ |①-②-|
⑤⑧⑦③ |③-④-|
③⑦⑧⑤ |⑤-⑥-|
④⑥②① |⑦-⑧-|
62
①①③④ |①---|
口口⑤① |②-③-|
①⑤口口 |--④-|
④③②② |⑤---|
63
口③②⑦ |①-②-|
④⑤⑥① |③-④-|
①⑥⑤④ |--⑤-|
⑦②③口 |⑥-⑦-|
64
①①③④ |①---|
口口⑤① |②-③-|
①⑤③口 |--④-|
④③②② |⑤---|
65
口③②⑦ |①-②-|
④⑤⑥① |③-④-|
①⑥⑤④ |--⑤-|
⑦②③口 |⑥-⑦-|
66
①①③④ |①---|
口③⑤① |②-③-|
①⑤③口 |--④-|
④③②② |⑤---|
67
口③②⑦ |①-②-|
④⑤⑥① |③-④-|
①⑥⑤④ |--⑤-|
⑦②③口 |⑥-⑦-|
68
①①③④ |①---|
口口⑤① |②-③-|
①⑤口口 |--④-|
④③②② |⑤---|
69
①口口④ |①-②-|
口②口③ |③-④-|
③口②口
④口口①

⑦⑥口口
⑥⑦⑤口
口⑤⑦⑥ |⑤--⑥|
口口⑥⑦ |--⑦-|
70
口口①口 |①---|
口口口① |----|
①口口口 |----|
口①口口 |----|
71
①口口② |①---|
②口④① |--②-|
①③口② |----|
口②①口 |--③④|
72
口①口口 |①---|
口口口① |----|
①口口口 |----|
口口口① |----|
73
①口③② |①---|
①口③② |--②-|
②③口① |--③-|
③①②口 |----|

不確定度: 0

最終更新:2014年05月21日 18:45