ロストワンの号哭
Neru

BASIC

Level: 4
BPM: 162
Notes: 267

BPM: 161
1
口口口口 |----|
口口口口 |----|
口口口口 |----|
口口口口 |----|
2
口口口口 |①---|
口口②口 |----|
口①口口 |②---|
口口口口 |----|
3
口口口口 |①---|
口②口口 |----|
口口①口 |②---|
口口口口 |----|

BPM: 162
4
口口口口 |①---|
口②口口 |----|
①口口口 |②---|
口口口口 |----|
5
口口口口 |①---|
口口①口 |----|
口口口② |②---|
口口口口 |----|
6
口口口口 |①---|
口②①口 |----|
口口口口 |②---|
口口口口 |----|
7
口口口口 |①---|
口口口口 |----|
①口口口 |②---|
口②②口 |----|
8
口口口口 |①---|
口口②口 |----|
口口口① |②---|
口口口口 |----|
9
口口口口 |①---|
口①口口 |----|
②口口口 |②---|
口口口口 |----|
10
口口口口 |①---|
口①②口 |----|
口口口口 |②---|
口口口口 |----|
11
口口口口 |①---|
口②②口 |----|
口口口① |②---|
口口口口 |----|
12
①口口口 |①---|
口②口口 |----|
口口口口 |②---|
口口口口 |----|
13
口口口口 |①---|
口口口② |----|
口口①口 |②---|
口口口口 |----|
14
口口口① |①---|
口口②口 |----|
口口口口 |②---|
口口口口 |----|
15
口口口口 |①---|
②口口口 |----|
口①口口 |②---|
口口口口 |----|
16
①口口口 |①---|
口②口口 |----|
口口口口 |②---|
口口口口 |----|
17
口口口口 |①---|
口口口② |----|
口口①口 |②---|
口口口口 |----|
18
口口口① |①---|
口口②口 |----|
口口口口 |②---|
口口口口 |----|
19
口口口口 |①---|
②口口口 |----|
口①口口 |②---|
口口口口 |----|
20
口口口口 |①---|
口②口口 |----|
①口口口 |②---|
口口口口 |----|
21
口口口口 |①---|
口口①口 |----|
口口口② |②---|
口口口口 |----|
22
口口口口 |①---|
口②①口 |----|
口口口口 |②---|
口口口口 |----|
23
口口口口 |①---|
口口口口 |----|
①口口口 |②---|
口②②口 |----|
24
口口口口 |①---|
口口②口 |----|
口①①口 |②---|
口口口口 |----|
25
口口口口 |①---|
口①口口 |----|
②口口口 |②---|
口口口口 |----|
26
口口口口 |①---|
口①②口 |----|
口口口口 |②---|
口口口口 |----|
27
口口口口 |①---|
口②②口 |----|
口口口① |②---|
口口口口 |----|
28
①口口口 |①---|
口②口口 |----|
口口口口 |②---|
口口口口 |----|
29
口口口口 |①---|
口②②口 |----|
口口①口 |②---|
口口口口 |----|
30
口口口① |①---|
口口②口 |----|
口口口口 |②---|
口口口口 |----|
31
口口口口 |①---|
口②②口 |----|
口①口口 |②---|
口口口口 |----|
32
①口口口 |①---|
口②口口 |----|
口口口口 |②---|
口口口口 |----|
33
口口口口 |①---|
口②②口 |----|
口口①口 |②---|
口口口口 |----|
34
口口口① |①---|
口口②口 |----|
口口口口 |②---|
口口口口 |----|
35
口口口口 |①---|
口②②口 |----|
口①口口 |②---|
口口口口 |----|
36
①口口① |①---|
②口口② |----|
口口口口 |②---|
口口口口 |----|
37
口②②口 |①---|
口①①口 |----|
口口口口 |②---|
口口口口 |----|
38
①口口① |①---|
②口口② |----|
口口口口 |②---|
口口口口 |----|
39
口②②口 |①---|
口①①口 |----|
口口口口 |②---|
口口口口 |----|
40
①口口① |①---|
②口口② |----|
口口口口 |②---|
口口口口 |----|
41
口②②口 |①---|
口①①口 |----|
口口口口 |②---|
口口口口 |----|
42
口口口口 |①---|
①①①① |----|
口口口口 |----|
口口口口 |----|
43
①①①① |①---|
口口口口 |----|
口口口口 |----|
口口口口 |----|
44
口口口口 |①---|
口②口④ |②---|
①口③口 |③---|
口口口口 |④---|
45
口①①口 |①---|
口②②口 |----|
口口口口 |②---|
口口口口 |----|
46
口口口口 |①---|
④口②口 |②---|
口③口① |③---|
口口口口 |④---|
47
口①①口 |①---|
口②②口 |----|
口口口口 |②---|
口口口口 |----|
48
口口口口 |①---|
口②口④ |②---|
①口③口 |③---|
口口口口 |④---|
49
口①①口 |①---|
口②②口 |----|
口口口口 |②---|
口口口口 |----|
50
口口口口 |①---|
口口口口 |----|
②②①① |②---|
口口口口 |----|
51
口①②口 |①---|
口②①口 |----|
口口口口 |②---|
口口口口 |----|
52
口口口口 |①---|
口②口④ |②---|
①口③口 |③---|
口口口口 |④---|
53
口①①口 |①---|
口②②口 |----|
口口口口 |②---|
口口口口 |----|
54
口口口口 |①---|
④口②口 |②---|
口③口① |③---|
口口口口 |④---|
55
口①①口 |①---|
口②②口 |----|
口口口口 |②---|
口口口口 |----|
56
口口口口 |①---|
口②口④ |②---|
①口③口 |③---|
口口口口 |④---|
57
口①①口 |①---|
口②②口 |----|
口口口口 |②---|
口口口口 |----|
58
口口口口 |①---|
口口口口 |----|
②②①① |②---|
口口口口 |----|
59
口①②口 |①---|
口②①口 |----|
口口口口 |②---|
口口口口 |----|
60
①口口① |①---|
口口口口 |----|
口口口口 |----|
口口口口 |----|
61
口口口口 |①---|
①②②① |----|
口口口口 |②---|
口口口口 |----|
62
①口口① |①---|
口口口口 |----|
口口口口 |----|
口口口口 |----|
63
口口口口 |①---|
①②②① |----|
口口口口 |②---|
口口口口 |----|
64
口口口口 |①---|
口口口口 |----|
口口②① |②---|
口口口口 |----|
65
口口口口 |①---|
口口口口 |----|
②①口口 |②---|
口口口口 |----|
66
口口口口 |①---|
口①①口 |----|
口口口口 |----|
口口口口 |----|
67
口①②口 |①---|
口②①口 |----|
口口口口 |②---|
口口口口 |----|
68
口口口口 |①---|
口②口④ |②---|
①口③口 |③---|
口口口口 |④---|
69
口口①口 |①---|
④②口④ |②---|
口③③口 |③---|
口口口口 |④---|
70
口口口口 |①---|
④口②口 |②---|
口③口① |③---|
口口口口 |④---|
71
口①口口 |①---|
口口②口 |②---|
口③③口 |③---|
口口口口 |----|
72
口口口口 |①---|
口②口④ |②---|
①口③口 |③---|
口口口口 |④---|
73
口口①口 |①---|
口②口口 |②---|
口③③口 |③---|
口口口口 |----|
74
口口口口 |①---|
②②①① |----|
口口口口 |②---|
口口口口 |----|
75
口①①口 |①---|
②②②② |----|
口口口口 |②---|
口口口口 |----|
76
口口口口 |----|
口口口口 |----|
口口口口 |----|
口①①口 |①---|
77
口口口口 |①---|
口②口口 |----|
①口口口 |②---|
口口口口 |----|
78
口口口口 |①---|
口口①口 |----|
口口口② |②---|
口口口口 |----|
79
口口口口 |①---|
口②①口 |----|
口口口口 |②---|
口口口口 |----|
80
口口口口 |①---|
口口口口 |----|
①口口口 |②---|
口②②口 |----|
81
口口口口 |①---|
口口②口 |----|
口口口① |②---|
口口口口 |----|
82
口口口口 |①---|
口①口口 |----|
②口口口 |②---|
口口口口 |----|
83
口口口口 |①---|
口①②口 |----|
口口口口 |②---|
口口口口 |----|
84
口口口口 |①---|
口②②口 |----|
口口口① |②---|
口口口口 |----|
85
口口口口 |①---|
口③④口 |②---|
口①②口 |③---|
口口口口 |④---|
86
口口口口 |①---|
③口口③ |②---|
口①②口 |③---|
口口口口 |----|
87
口口口口 |①---|
口③④口 |②---|
口①②口 |③---|
口口口口 |④---|
88
口口口口 |①---|
③口口③ |②---|
口①②口 |③---|
口口口口 |----|

不確定度: 0

最終更新:2014年05月21日 18:30