ロストワンの号哭
Neru

ADVANCED

Level: 8
BPM: 162
Notes: 696

BPM: 161
1
口口口口 |----|
口口口口 |----|
口口口口 |----|
口口口口 |----|
2
口口口口 |①---|
口口口口 |----|
②②②② |②---|
①①①① |----|
3
②②②② |①---|
①①①① |----|
口口口口 |②---|
口③③口 |③---|

BPM: 162
4
口⑤口⑥ |①-②-|
③⑦④⑧ |③-④-|
①口②口 |⑤-⑥-|
口口口口 |⑦-⑧-|
5
①⑤②⑥ |①-②-|
③⑦④⑧ |③-④-|
口口口口 |⑤-⑥-|
口口口口 |⑦-⑧-|
6
口⑤口⑥ |①-②-|
③⑦④⑧ |③-④-|
①口②口 |⑤-⑥-|
口口口口 |⑦-⑧-|
7
①口②⑥ |①-②-|
③口④口 |③-④-|
口口口口 |⑤---|
⑤口口口 |⑥---|
8
⑥口⑤口 |①-②-|
⑧④⑦③ |③-④-|
口②口① |⑤-⑥-|
口口口口 |⑦-⑧-|
9
⑥②⑤① |①-②-|
⑧④⑦③ |③-④-|
口口口口 |⑤-⑥-|
口口口口 |⑦-⑧-|
10
⑥口⑤口 |①-②-|
⑧④⑦③ |③-④-|
口②口① |⑤-⑥-|
口口口口 |⑦-⑧-|
11
⑥②⑤① |①-②-|
⑧④⑦③ |③-④-|
口口口口 |⑤-⑥-|
口口口口 |⑦-⑧-|
12
③①口口 |①--②|
口口口② |--③-|
口⑤④口 |--④-|
口口⑥口 |⑤-⑥-|
13
口口口口 |①--②|
口②②④ |--③-|
③口口③ |----|
口①口口 |--④-|
14
口口①③ |①--②|
②⑥口口 |--③-|
口④⑤口 |--④-|
口口口口 |⑤-⑥-|
15
口口口口 |①--②|
④口①口 |--③-|
口口口口 |----|
②②③③ |--④-|
16
③①口口 |①--②|
口口口② |--③-|
口⑤④口 |--④-|
口口⑥口 |⑤-⑥-|
17
口口口口 |①--②|
口②②④ |--③-|
③口口③ |----|
口①口口 |--④-|
18
口口①③ |①--②|
②⑥口口 |--③-|
口④⑤口 |--④-|
口口口口 |⑤-⑥-|
19
③③⑤⑤ |①--②|
口口①口 |--③-|
口口口口 |--④-|
④④②② |--⑤-|
20
口⑤口⑥ |①-②-|
③⑦④⑧ |③-④-|
①口②口 |⑤-⑥-|
口口口口 |⑦-⑧-|
21
①⑤②⑥ |①-②-|
③⑦④⑧ |③-④-|
口口口口 |⑤-⑥-|
口口口口 |⑦-⑧-|
22
口⑤口⑥ |①-②-|
③⑦④⑧ |③-④-|
①口②口 |⑤-⑥-|
口口口口 |⑦-⑧-|
23
①口②口 |①-②-|
③口④口 |③-④-|
口口口口
口口口口

⑥口口⑥
口口口口
口口口口 |⑤---|
口⑤⑤口 |--⑥-|
24
⑥口⑤口 |①-②-|
⑧④⑦③ |③-④-|
口②口① |⑤-⑥-|
口口口口 |⑦-⑧-|
25
⑥②⑤① |①-②-|
⑧④⑦③ |③-④-|
口口口口 |⑤-⑥-|
口口口口 |⑦-⑧-|
26
⑥口⑤口 |①-②-|
⑧④⑦③ |③-④-|
口②口① |⑤-⑥-|
口口口口 |⑦-⑧-|
27
口②口① |①-②-|
⑦④口③ |③-④-|
⑤口口⑥ |⑤---|
口⑤⑥口 |⑥-⑦-|
28
③①口口 |①--②|
口口口② |--③-|
口⑤④口 |--④-|
口口⑥口 |⑤-⑥-|
29
口口口口 |①--②|
口②②④ |--③-|
③口口③ |----|
口①口口 |--④-|
30
口口①③ |①--②|
②⑥口口 |--③-|
口④⑤口 |--④-|
口口口口 |⑤-⑥-|
31
口口口口 |①--②|
④口①口 |--③-|
口口口口 |----|
②②③③ |--④-|
32
③①口口 |①--②|
口口口② |--③-|
口⑤④口 |--④-|
口口⑥口 |⑤-⑥-|
33
口口口口 |①--②|
口②②④ |--③-|
③口口③ |----|
口①口口 |--④-|
34
口口①③ |①--②|
②⑥口口 |--③-|
口④⑤口 |--④-|
口口口口 |⑤-⑥-|
35
②口口② |①--②|
口口①口 |--③-|
口③口口 |④---|
口口④⑤ |--⑤-|
36
②口口⑤ |①--②|
口口口口 |--③-|
口④①口 |④--⑤|
③口口⑥ |--⑥-|
37
②口③口 |①--②|
口④口口 |--③-|
口口①口 |④--⑤|
⑥口⑤口 |--⑥-|
38
⑤口口② |①--②|
口口口口 |--③-|
口①④口 |④--⑤|
⑥口口③ |--⑥-|
39
口③口② |①--②|
口口④口 |--③-|
口①口口 |④--⑤|
口⑤口⑥ |--⑥-|
40
②口口⑤ |①--②|
口口口口 |--③-|
口④①口 |④--⑤|
③口口⑥ |--⑥-|
41
②口③口 |①--②|
⑥④口口 |--③-|
口口①口 |④--⑤|
口口⑤口 |--⑥-|
42
口口口口 |①--②|
口口口① |--③-|
口②②口
③口口③

④口口④
口口口⑤
口口口口 |--④-|
口口口口 |--⑤-|
43
口口口口 |①--②|
①口口口 |--③-|
口②②口
③口口③

④口口④
⑤口口⑤
口口口口 |--④-|
口口口口 |--⑤-|
44
③⑥口③ |①--②|
⑥①①口 |--③-|
④②②⑤ |--④-|
口④⑤口 |⑤-⑥-|
45
③口①口 |①--②|
口口口① |--③-|
③②②口
口口口口

口口口④
⑤口口⑤
口口口④ |④---|
口口口口 |--⑤-|
46
③口⑥③ |①--②|
口①①⑥ |--③-|
⑤②②④ |--④-|
口⑤④口 |⑤-⑥-|
47
口①口③ |①--②|
①口口口 |--③-|
口②②③
口口口口

④口口口
⑤口口⑤
④口口口 |④---|
口口口口 |--⑤-|
48
③⑥口③ |①--②|
⑥①①口 |--③-|
④②②⑤ |--④-|
口④⑤口 |⑤-⑥-|
49
③口①④ |①--②|
口口口① |--③-|
③②②④ |④---|
口⑤⑤口 |--⑤-|
50
口口口口 |①--②|
口口口① |--③-|
②口④③ |④---|
口⑤⑤口 |--⑤-|
51
③口口② |①--②|
①口口口 |--③-|
口口口口
口口口口

口④口口
⑤口口⑤
口口口口 |④---|
口口口口 |--⑤-|
52
③⑥口③ |①--②|
⑥①①口 |--③-|
④②②⑤ |--④-|
口④⑤口 |⑤-⑥-|
53
③口①口 |①--②|
口口口① |--③-|
③②②口
口口口口

口口口④
⑤口口⑤
口口口④ |④---|
口口口口 |--⑤-|
54
③口⑥③ |①--②|
口①①⑥ |--③-|
⑤②②④ |--④-|
口⑤④口 |⑤-⑥-|
55
口①口③ |①--②|
①口口口 |--③-|
口②②③
口口口口

④口口口
⑤口口⑤
④口口口 |④---|
口口口口 |--⑤-|
56
③⑥口③ |①--②|
⑥①①口 |--③-|
④②②⑤ |--④-|
口④⑤口 |⑤-⑥-|
57
③口①④ |①--②|
口口口① |--③-|
③②②④ |④---|
口⑤⑤口 |--⑤-|
58
口口口口 |①--②|
口口口① |--③-|
②口④③ |④---|
口⑤⑤口 |--⑤-|
59
③口口② |①--②|
①口口口 |--③-|
口口口口
口口口口

口④口口
⑤口口⑤
口口口口 |④---|
口口口口 |--⑤-|
60
③口口③ |①--②|
⑥①①口 |--③-|
④②②⑤ |--④-|
口口口口 |⑤-⑥-|
61
③口口口 |①--②|
口口口① |--③-|
口②②口
口口口口

口口口④
⑤口口⑤
口口口口 |④---|
口口口口 |--⑤-|
62
③口口③ |①--②|
口①①⑥ |--③-|
⑤②②④ |--④-|
口口口口 |⑤-⑥-|
63
口口口③ |①--②|
①口口口 |--③-|
口②②口
口口口口

④口口口
⑤口口⑤
口口口口 |④---|
口口口口 |--⑤-|
64
③口口③ |①--②|
⑥①①口 |--③-|
④②②⑤ |--④-|
口口口口 |⑤-⑥-|
65
③口口④ |①--②|
口口口① |--③-|
口②②口 |④---|
口⑤⑤口 |--⑤-|
66
口口口口 |①--②|
口口口① |--③-|
②口④③ |④---|
口⑤⑤口 |--⑤-|
67
③口口② |①--②|
①口口口 |--③-|
口口口口
口口口口

口④口口
⑤口口⑤
口口口口 |④---|
口口口口 |--⑤-|
68
③⑥口③ |①--②|
⑥①①口 |--③-|
④②②⑤ |--④-|
口④⑤口 |⑤-⑥-|
69
④口①③ |①--②|
口口口① |--③-|
③②②④ |④---|
⑤口口⑤ |⑤---|
70
③口⑥③ |①--②|
口①①⑥ |--③-|
⑤②②④ |--④-|
口⑤④口 |⑤-⑥-|
71
③①口口 |①--②|
①口口口 |--③-|
口②②③
口口口口

口口口④
⑤口口⑤
④口口口 |④---|
口口口口 |--⑤-|
72
③⑥口③ |①--②|
⑥①①口 |--③-|
④②②⑤ |--④-|
口④⑤口 |⑤-⑥-|
73
④口①③ |①--②|
口口口① |--③-|
③②②④ |④---|
口⑤⑤口 |--⑤-|
74
口口口口 |①--②|
口口口① |--③-|
②口④③ |④---|
口⑤⑤口 |--⑤-|
75
③④口② |①--②|
①口④口 |--③-|
口⑤口口 |④---|
口口⑤口 |⑤---|
76
口口口口 |①---|
①口口② |--②-|
口口口口 |----|
①③③② |③---|
77
口⑤口⑥ |①-②-|
③⑦④⑧ |③-④-|
①口②口 |⑤-⑥-|
口口口口 |⑦-⑧-|
78
①⑤②⑥ |①-②-|
③⑦④⑧ |③-④-|
口口口口 |⑤-⑥-|
口口口口 |⑦-⑧-|
79
口⑤口⑥ |①-②-|
③⑦④⑧ |③-④-|
①口②口 |⑤-⑥-|
口口口口 |⑦-⑧-|
80
①口②⑥ |①-②-|
③口④口 |③-④-|
口口口口 |⑤---|
⑤口口口 |⑥---|
81
⑥口⑤口 |①-②-|
⑧④⑦③ |③-④-|
口②口① |⑤-⑥-|
口口口口 |⑦-⑧-|
82
⑥②⑤① |①-②-|
⑧④⑦③ |③-④-|
口口口口 |⑤-⑥-|
口口口口 |⑦-⑧-|
83
⑥口⑤口 |①-②-|
⑧④⑦③ |③-④-|
口②口① |⑤-⑥-|
口口口口 |⑦-⑧-|
84
⑥②⑤① |①-②-|
⑧④⑦③ |③-④-|
口口口口 |⑤-⑥-|
口口口口 |⑦-⑧-|
85
口口口口 |①---|
口口口口 |----|
②②②② |②---|
①①①① |----|
86
口口口口 |①---|
①①①① |----|
口口口口
口口口口

②②②②
口③③口
口③③口 |②---|
口口口口 |③---|
87
口口口口 |①---|
口口口口 |----|
②②②② |②---|
①①①① |----|
88
②②②② |①---|
①①①① |----|
口口口口 |②---|
口口口口 |----|

不確定度: 0

最終更新:2014年05月21日 18:30