ロストワンの号哭
Neru

EXTREME

Level: 10
BPM: 162
Notes: 1083

BPM: 161
1
口口口口 |----|
口口口口 |----|
口口口口 |----|
口口口口 |----|
2
③④⑩⑨ |①-②-|
⑤⑥⑫⑪ |③④⑤⑥|
⑧口口⑦ |⑦-⑧-|
①口口② |⑨⑩⑪⑫|
3
③④口口 |①-②-|
⑤⑥口口 |③④⑤⑥|
⑦口⑧⑦ |⑦---|
①⑧口② |⑧---|

BPM: 162
4
②⑦⑤① |①-②-|
②⑤⑦① |③-④-|
④⑧⑥③ |⑤-⑥-|
④⑥⑧③ |⑦-⑧-|
5
③⑦⑤① |①-②-|
①⑤⑦③ |③-④-|
④⑧⑥② |⑤-⑥-|
②⑥⑧④ |⑦-⑧-|
6
②⑦⑤① |①-②-|
②⑤⑦① |③-④-|
④⑧⑥③ |⑤-⑥-|
④⑥⑧③ |⑦-⑧-|
7
③⑥⑧① |①-②-|
①口口③ |③-④-|
④口口② |⑤-⑥-|
②⑤⑦④ |⑦-⑧-|
8
①⑤⑦② |①-②-|
①⑦⑤② |③-④-|
③⑥⑧④ |⑤-⑥-|
③⑧⑥④ |⑦-⑧-|
9
①⑤⑦③ |①-②-|
③⑦⑤① |③-④-|
②⑥⑧④ |⑤-⑥-|
④⑧⑥② |⑦-⑧-|
10
①⑤⑦② |①-②-|
①⑦⑤② |③-④-|
③⑥⑧④ |⑤-⑥-|
③⑧⑥④ |⑦-⑧-|
11
①⑤⑦③ |①-②-|
③⑦⑤① |③-④-|
②⑥⑧④ |⑤-⑥-|
④⑧⑥② |⑦-⑧-|
12
①口口① |①--②|
③⑥口② |--③-|
④口⑥⑤ |--④-|
③⑤④② |⑤-⑥-|
13
②口④② |①--②|
口口①口 |--③-|
口①④口 |----|
③口口③ |--④-|
14
口①口口 |①--②|
③⑥口② |--③-|
④①⑥⑤ |--④-|
⑤③②④ |⑤-⑥-|
15
②口口② |①--②|
口口①口 |--③-|
口①口口
口③③口

口口口口
口口④口
口④口口 |----|
口口口口 |--④-|
16
①口口① |①--②|
②口⑥③ |--③-|
⑤⑥口④ |--④-|
②④⑤③ |⑤-⑥-|
17
②④口② |①--②|
口①口口 |--③-|
口④①口 |----|
③口口③ |--④-|
18
口口①口 |①--②|
②口⑥③ |--③-|
⑤⑥①④ |--④-|
④②③⑤ |⑤-⑥-|
19
②口口② |①--②|
口①口口 |--③-|
口口①口
口③③口

口⑥④口
口⑤⑤口
口④⑥口 |--④-|
口口口口 |⑤-⑥-|
20
②⑦⑤① |①-②-|
②⑤⑦① |③-④-|
④⑧⑥③ |⑤-⑥-|
④⑥⑧③ |⑦-⑧-|
21
③⑦⑤① |①-②-|
①⑤⑦③ |③-④-|
④⑧⑥② |⑤-⑥-|
②⑥⑧④ |⑦-⑧-|
22
②⑦⑤① |①-②-|
②⑤⑦① |③-④-|
④⑧⑥③ |⑤-⑥-|
④⑥⑧③ |⑦-⑧-|
23
③⑥⑦① |①-②-|
①口⑤③ |③-④-|
④⑦⑥② |⑤--⑥|
②⑤口④ |--⑦-|
24
①⑤⑦② |①-②-|
①⑦⑤② |③-④-|
③⑥⑧④ |⑤-⑥-|
③⑧⑥④ |⑦-⑧-|
25
①⑤⑦③ |①-②-|
③⑦⑤① |③-④-|
②⑥⑧④ |⑤-⑥-|
④⑧⑥② |⑦-⑧-|
26
①⑤⑦② |①-②-|
①⑦⑤② |③-④-|
③⑥⑧④ |⑤-⑥-|
③⑧⑥④ |⑦-⑧-|
27
①口口③ |①-②-|
③⑧⑤① |③-④-|
②⑥⑧④ |⑤-⑥-|
④口⑦② |⑦-⑧-|
28
①口口① |①--②|
③⑥口② |--③-|
④口⑥⑤ |--④-|
③⑤④② |⑤-⑥-|
29
②口④② |①--②|
口口①口 |--③-|
口①④口 |----|
③口口③ |--④-|
30
口①口口 |①--②|
③⑥口② |--③-|
④①⑥⑤ |--④-|
⑤③②④ |⑤-⑥-|
31
②口口② |①--②|
口口①口 |--③-|
口①口口
口③③口

口口口口
口口④口
口④口口 |----|
口口口口 |--④-|
32
①口口① |①--②|
②口⑥③ |--③-|
⑤⑥口④ |--④-|
②④⑤③ |⑤-⑥-|
33
②④口② |①--②|
口①口口 |--③-|
口④①口 |----|
③口口③ |--④-|
34
口口①口 |①--②|
②口⑥③ |--③-|
⑤⑥①④ |--④-|
④②③⑤ |⑤-⑥-|
35
②口口② |①--②|
⑤①口口 |--③-|
④口①③ |④---|
口③④口 |--⑤-|
36
口②⑤口 |①--②|
⑥⑤②③ |--③-|
口②⑤口 |④--⑤|
④口口① |--⑥-|
37
口②口口 |①--②|
⑥⑤②③ |--③-|
口②⑤口 |④--⑤|
④⑤口① |--⑥-|
38
口②⑤口 |①--②|
⑥⑤②③ |--③-|
口②⑤口 |④--⑤|
④口口① |--⑥-|
39
口②口口 |①--②|
⑥⑤②③ |--③-|
口②⑤口 |④--⑤|
④⑤口① |--⑥-|
40
口②⑤口 |①--②|
⑥⑤②③ |--③-|
口②⑤口 |④--⑤|
④口口① |--⑥-|
41
口②口口 |①--②|
口⑤②③ |--③-|
⑥②⑤口 |④--⑤|
④⑤口① |--⑥-|
42
口②③口 |①--②|
口口口口 |--③-|
口口口①
③口口②

口口口④
口④④口
口口口⑤ |--④-|
口口口口 |--⑤-|
43
④③②口 |①--②|
口④④口 |--③-|
①⑥口口 |--④-|
②口⑤③ |--⑤⑥|
44
口口②⑥ |①-②③|
①⑥口③ |-④⑤-|
⑤⑧⑦口 |--⑥-|
⑦④口⑧ |⑦-⑧-|
45
①②③口 |①--②|
③④①② |--③-|
③口⑥② |④---|
④⑤④口 |--⑤⑥|
46
⑤②④口 |①-②③|
③口⑤① |--④-|
口⑥⑦④ |--⑤-|
⑦口口⑥ |⑥-⑦-|
47
口③②① |①--②|
②①④③ |--③-|
②⑥口③ |④---|
口④⑤④ |--⑤⑥|
48
口口②⑥ |①-②③|
①⑥口③ |-④⑤-|
⑤⑧⑦口 |--⑥-|
⑦④口⑧ |⑦-⑧-|
49
①②③口 |①--②|
③口①② |--③-|
③口口②
口口口口

⑤口口口
口④口口
口口口口 |④---|
④口④⑤ |--⑤-|
50
⑤②④口 |①--②|
③④①④ |--③-|
口①④② |④---|
口口③⑤ |--⑤-|
51
口口③② |①--②|
口口①③ |--③-|
口②口口
①口口口

口口口口
口④口口
④⑥④口 |④---|
口④⑤口 |--⑤⑥|
52
口口②⑥ |①-②③|
①⑥口③ |-④⑤-|
⑤⑧⑦口 |--⑥-|
⑦④口⑧ |⑦-⑧-|
53
①②③口 |①--②|
③④①② |--③-|
③口⑥② |④---|
④⑤④口 |--⑤⑥|
54
⑥②口口 |①-②③|
③口⑥① |-④⑤-|
口⑦⑧⑤ |--⑥-|
⑧口④⑦ |⑦-⑧-|
55
口③②① |①--②|
②①④③ |--③-|
②⑥口③ |④---|
口④⑤④ |--⑤⑥|
56
口口②⑥ |①-②③|
①⑥口③ |-④⑤-|
⑤⑧⑦口 |--⑥-|
⑦④口⑧ |⑦-⑧-|
57
①②③口 |①--②|
③口①② |--③-|
③口口②
口口口口

⑤口口口
口④口口
口口口口 |④---|
④口④⑤ |--⑤-|
58
⑤②④口 |①--②|
③④①④ |--③-|
口①④② |④---|
口口③⑤ |--⑤-|
59
口口③② |①--②|
口口①③ |--③-|
口②口口
①口口口

口口口口
口④口口
④口④口 |④---|
⑤④口⑤ |--⑤-|
60
①⑤口① |①-②③|
口口④口 |-④⑤-|
口③口口
口口②口

口口口⑧
⑥口口⑦
⑦口口⑥ |--⑥-|
⑧口口口 |⑦-⑧-|
61
②口①口 |①--②|
口③④④ |--③-|
④④③口 |④---|
⑤①⑤② |--⑤-|
62
⑧①⑤① |①-②③|
⑦④口⑥ |-④⑤-|
⑥口③⑦ |--⑥-|
口②口⑧ |⑦-⑧-|
63
口①口② |①--②|
口口③口 |--③-|
口③口口
②口①口

口口口口
④④口口
口口④④ |④---|
口口⑤⑤ |--⑤-|
64
①口②① |①-②-|
③口②① |③-④-|
口口④④
口口口口

口口口⑧
口口口口
⑤口口口 |⑤-⑥-|
⑦口⑦⑥ |⑦-⑧-|
65
①口①口 |①--②|
③口④② |③-④-|
口口②④
口口口口

口口⑦口
口口口口
⑤口口口 |⑤---|
⑥口⑤⑤ |⑥-⑦-|
66
①口口① |①--②|
③口②④ |③-④-|
口口②④
口口口口

口口口⑦
口口口口
⑤⑦口口 |⑤---|
⑥口⑤⑤ |⑥-⑦-|
67
①②③口 |①--②|
②④④③ |--③-|
③⑥①② |④---|
④口⑤④ |--⑤⑥|
68
口口②⑥ |①-②③|
①⑥口③ |-④⑤-|
⑤⑧⑦口 |--⑥-|
⑦④口⑧ |⑦-⑧-|
69
①③②口 |①--②|
③口①② |--③-|
③口口②
口口口口

口口口口
口④⑤口
口⑥⑧口 |④---|
④⑦④口 |⑤⑥⑦⑧|
70
⑧②口口 |①-②③|
③口⑦① |-④⑤-|
口⑦⑨⑤ |⑥-⑦-|
⑨口④⑥ |⑧-⑨-|
71
口②③① |①--②|
②①④③ |--③-|
②⑥口③ |④---|
口④⑤④ |--⑤⑥|
72
口口②⑥ |①-②③|
①⑥口③ |-④⑤-|
⑤⑧⑦口 |--⑥-|
⑦④口⑧ |⑦-⑧-|
73
①③②口 |①--②|
③口①② |--③-|
③口口②
口口口口

⑤口口口
口④口口
口口口口 |④---|
④口④⑤ |--⑤-|
74
⑤②④口 |①--②|
③④①④ |--③-|
口①④② |④---|
口口③⑤ |--⑤-|
75
口口③② |①--②|
口口①③ |--③-|
口②口口
①口口口

口口口口
⑤④⑤口
④口④口 |④---|
⑤④⑤口 |⑤---|
76
①②③④ |①②③④|
口⑨⑨口 |--⑤⑥|
⑧⑦⑥⑤ |⑦⑧--|
口⑨⑨口 |⑨---|
77
②⑦⑤① |①-②-|
②⑤⑦① |③-④-|
④⑧⑥③ |⑤-⑥-|
④⑥⑧③ |⑦-⑧-|
78
③⑦⑤① |①-②-|
①⑤⑦③ |③-④-|
④⑧⑥② |⑤-⑥-|
②⑥⑧④ |⑦-⑧-|
79
②⑦⑤① |①-②-|
②⑤⑦① |③-④-|
④⑧⑥③ |⑤-⑥-|
④⑥⑧③ |⑦-⑧-|
80
③⑥⑧① |①-②-|
①口口③ |③-④-|
④口口② |⑤-⑥-|
②⑤⑦④ |⑦-⑧-|
81
①⑤⑦② |①-②-|
①⑦⑤② |③-④-|
③⑥⑧④ |⑤-⑥-|
③⑧⑥④ |⑦-⑧-|
82
①⑤⑦③ |①-②-|
③⑦⑤① |③-④-|
②⑥⑧④ |⑤-⑥-|
④⑧⑥② |⑦-⑧-|
83
①⑤⑦② |①-②-|
①⑦⑤② |③-④-|
③⑥⑧④ |⑤-⑥-|
③⑧⑥④ |⑦-⑧-|
84
①⑤⑦③ |①-②-|
③⑦⑤① |③-④-|
②⑥⑧④ |⑤-⑥-|
④⑧⑥② |⑦-⑧-|
85
⑨⑤⑪③ |①-②-|
⑥⑩④⑫ |③④⑤⑥|
⑦口口⑧ |⑦-⑧-|
②口口① |⑨⑩⑪⑫|
86
口⑤口③ |①-②-|
⑥口④口 |③④⑤⑥|
⑦⑧⑧口 |⑦---|
②⑧⑧① |⑧---|
87
③⑪⑤⑨ |①-②-|
⑫④⑩⑥ |③④⑤⑥|
⑧口口⑦ |⑦-⑧-|
①口口② |⑨⑩⑪⑫|
88
③口⑤口 |①-②-|
口④口⑥ |③④⑤⑥|
口口口⑦ |⑦---|
①口口② |----|

不確定度: 0

最終更新:2014年05月21日 18:29