Dark Fall
黒龍

BASIC

Level: 4
BPM: 202
Notes: 248

1
口口口口 |----|
口口口口 |----|
口口口口 |----|
口口口口 |----|
2
口口口口 |①---|
口①①口 |----|
口①①口 |----|
口口口口 |----|
3
口口口口 |----|
口口口口 |----|
口口口口 |----|
口口口口 |----|
4
口口口口 |----|
口口口口 |----|
口口口口 |----|
口口口口 |----|
5
口口口口 |①---|
口口口口 |----|
口口口口 |----|
口①①口 |----|
6
口口口口 |①---|
口口②口 |----|
口①口口 |②---|
口口口口 |----|
7
口口口口 |①---|
口②口口 |----|
口口①口 |②---|
口口口口 |----|
8
口口口口 |①---|
口②②口 |----|
口①①口 |②---|
口口口口 |----|
9
口口口口 |①---|
口口口口 |----|
①口口① |----|
口口口口 |----|
10
①口口口 |①---|
口②口口 |----|
口口口口 |②---|
口口口口 |----|
11
口口①口 |①---|
口口口② |----|
口口口口 |②---|
口口口口 |----|
12
口口口口 |①---|
口口口口 |----|
口口口① |②---|
口口②口 |----|
13
口口口口 |①---|
口口口口 |----|
口①口口 |②---|
②口口口 |----|
14
口口口口 |①---|
口口口口 |----|
口口②口 |②---|
口①口口 |----|
15
口口②口 |①---|
口①口口 |----|
口口口口 |②---|
口口口口 |----|
16
口①口口 |①---|
口口②口 |----|
口口口口 |②---|
口口口口 |----|
17
口口口口 |①---|
口②②口 |----|
口①①口 |②---|
口口口口 |----|
18
口口口① |①---|
口口②口 |----|
口口口口 |②---|
口口口口 |----|
19
口①口口 |①---|
②口口口 |----|
口口口口 |②---|
口口口口 |----|
20
①口口口 |①---|
口②口口 |----|
口口口口 |②---|
口口口口 |----|
21
口口①口 |①---|
口口口② |----|
口口口口 |②---|
口口口口 |----|
22
口口口口 |①---|
口口口口 |----|
口①①口 |----|
口口口口 |----|
23
口口口口 |①---|
口②②口 |----|
口①①口 |②---|
口口口口 |----|
24
口口口口 |①---|
口②②口 |----|
口①①口 |②---|
口口口口 |----|
25
口口口口 |①---|
口口口口 |----|
①口口① |----|
口口口口 |----|
26
口口口口 |①---|
②①①② |----|
口口口口 |②---|
口口口口 |----|
27
口口口口 |①---|
口口口口 |----|
口口②① |②---|
口口口口 |----|
28
口口口口 |①---|
②①①② |----|
口口口口 |②---|
口口口口 |----|
29
口口口口 |①---|
口口口口 |----|
①②口口 |②---|
口口口口 |----|
30
口口口口 |①---|
②①①② |----|
口口口口 |②---|
口口口口 |----|
31
口口口口 |①---|
口口口口 |----|
口口②① |②---|
口口口口 |----|
32
口口口口 |①---|
②①①② |----|
口口口口 |②---|
口口口口 |----|
33
口口口口 |①---|
口口口口 |----|
①②口口 |②---|
口口口口 |----|
34
口口口口 |①---|
②①①② |----|
口口口口 |②---|
口口口口 |----|
35
口口口口 |①---|
口口口口 |----|
口口②① |②---|
口口口口 |----|
36
口口口口 |①---|
②①①② |----|
口口口口 |②---|
口口口口 |----|
37
口口口口 |①---|
口口口口 |----|
①②口口 |②---|
口口口口 |----|
38
口口口口 |①---|
口①①口 |----|
口口口口 |----|
口口口口 |----|
39
口口口口 |①---|
口口口口 |----|
口口②① |②---|
口口口口 |----|
40
口口口口 |①---|
口①①口 |----|
口口口口 |----|
口口口口 |----|
41
口口口口 |①---|
口口口口 |----|
①口口① |----|
口口口口 |----|
42
口口口口 |①---|
口①①口 |----|
口①①口 |----|
口口口口 |----|
43
口口口口 |①---|
口口口口 |----|
①口口① |----|
口口口口 |----|
44
口口口口 |①---|
口①①口 |----|
口口口口 |----|
口口口口 |----|
45
口口口口 |①---|
口口口口 |----|
①口口① |----|
口口口口 |----|
46
口口口口 |①---|
口①①口 |----|
口口口口 |----|
口口口口 |----|
47
口口口口 |①---|
口口口口 |----|
①口口① |----|
口口口口 |----|
48
口口口口 |①---|
口①①口 |----|
口口口口 |----|
口口口口 |----|
49
口口口口 |①---|
口口口口 |----|
①口口① |----|
口口口口 |----|
50
口口口口 |①---|
口①①口 |----|
口口口口 |----|
口口口口 |----|
51
口口口口 |①---|
口口口口 |----|
①①口口 |----|
口口口口 |----|
52
口口口口 |①---|
口口口口 |----|
口口①① |----|
口口口口 |----|
53
口口口口 |①---|
口①①口 |----|
口口口口 |----|
口口口口 |----|
54
口口口口 |①---|
口口口口 |----|
①①口口 |----|
口口口口 |----|
55
口口口口 |①---|
口口口口 |----|
口口①① |----|
口口口口 |----|
56
口口口口 |①---|
口①①口 |----|
口口口口 |----|
口口口口 |----|
57
口口口口 |①---|
口口口口 |----|
①口口① |----|
口口口口 |----|
58
①口口口 |①---|
口②口口 |----|
口口口口 |②---|
口口口口 |----|
59
口口①口 |①---|
口口口② |----|
口口口口 |②---|
口口口口 |----|
60
口口口口 |①---|
口口口口 |----|
口口口① |②---|
口口②口 |----|
61
口口口口 |①---|
口口口口 |----|
口①口口 |②---|
②口口口 |----|
62
口口口口 |①---|
口口口口 |----|
口口②口 |②---|
口①口口 |----|
63
口口②口 |①---|
口①口口 |----|
口口口口 |②---|
口口口口 |----|
64
口①口口 |①---|
口口②口 |----|
口口口口 |②---|
口口口口 |----|
65
口口口口 |①---|
口②②口 |----|
口①①口 |②---|
口口口口 |----|
66
口口口① |①---|
口口②口 |----|
口口口口 |②---|
口口口口 |----|
67
口①口口 |①---|
②口口口 |----|
口口口口 |②---|
口口口口 |----|
68
①口口口 |①---|
口②口口 |----|
口口口口 |②---|
口口口口 |----|
69
口口①口 |①---|
口口口② |----|
口口口口 |②---|
口口口口 |----|
70
口口口口 |①---|
口口口口 |----|
口①①口 |----|
口口口口 |----|
71
口口口口 |①---|
口②②口 |----|
口①①口 |②---|
口口口口 |----|
72
口口口口 |①---|
口②②口 |----|
口①①口 |②---|
口口口口 |----|
73
口口口口 |①---|
口口口口 |----|
①口口① |----|
口口口口 |----|
74
口口口口 |①---|
③④口口 |②---|
②①口口 |③---|
口口口口 |④---|
75
口③口口 |①---|
口口③口 |②---|
口口①② |③---|
口口口口 |----|
76
口口口口 |①---|
口口④③ |②---|
口口①② |③---|
口口口口 |④---|
77
口口③口 |①---|
口③口口 |②---|
②①口口 |③---|
口口口口 |----|
78
口口口口 |①---|
③④口口 |②---|
②①口口 |③---|
口口口口 |④---|
79
口③口口 |①---|
口口③口 |②---|
口口①② |③---|
口口口口 |----|
80
口口口口 |①---|
口口④③ |②---|
口口①② |③---|
口口口口 |④---|
81
口口口口 |①---|
③口口③ |②---|
②①口口 |③---|
口口口口 |----|
82
口口口口 |①---|
口口口口 |②---|
④③②① |③---|
口口口口 |④---|
83
口③口口 |①---|
①②③口 |②---|
口口口口 |③---|
口口口口 |----|
84
口口口口 |①---|
口口口口 |②---|
①②③④ |③---|
口口口口 |④---|
85
口口③口 |①---|
口③②① |②---|
口口口口 |③---|
口口口口 |----|
86
口口口口 |①---|
口口口口 |----|
①①①① |----|
口口口口 |----|
87
口口口口 |----|
口口口口 |----|
口口口口 |----|
口口口口 |----|
88
口口口口 |①---|
口③④口 |②---|
口①②口 |③---|
口口口口 |④---|
89
口口口口 |①---|
口口口口 |----|
①口口① |----|
口口口口 |----|
90
口口口口 |①---|
口口口口 |----|
口口②口 |②---|
口①口口 |----|
91
口口②口 |①---|
口①口口 |----|
口口口口 |②---|
口口口口 |----|
92
口①口口 |①---|
口口②口 |----|
口口口口 |②---|
口口口口 |----|
93
口口口口 |①---|
口口口口 |----|
口①口口 |②---|
口口②口 |----|
94
口口口口 |①---|
口口口口 |----|
口①①口 |----|
口口口口 |----|
95
口口口口 |①---|
口口口口 |----|
口①①口 |----|
口口口口 |----|
96
口口口口 |①---|
②口口② |----|
口①①口 |②---|
口口口口 |----|
97
口口口口 |①---|
口②口口 |----|
①口③① |②---|
口口口口 |③---|

不確定度: 0

最終更新:2014年05月21日 18:26