Dark Fall
黒龍

ADVANCED

Level: 7
BPM: 202
Notes: 503

1
口口口口 |----|
口口口口 |----|
口口口口 |----|
口口口口 |----|
2
口口口口 |①---|
口①①口 |----|
口①①口 |----|
口口口口 |----|
3
口口口口 |----|
口口口口 |----|
口口口口 |----|
口口口口 |----|
4
口口口口 |----|
口口口口 |----|
口口口口 |----|
口口口口 |----|
5
口口口口 |①---|
①口口① |----|
①口口① |----|
口口口口 |----|
6
口口口口 |①---|
口②①口 |----|
口①②口 |②---|
口口口口 |----|
7
口口口口 |①---|
口②①口 |----|
口①②口 |②---|
口口口口 |----|
8
口⑦⑧口 |①-②-|
口⑤⑥口 |③-④-|
口③④口 |⑤-⑥-|
口①②口 |⑦-⑧-|
9
口口口口 |①---|
①口口① |----|
①口口① |----|
口口口口 |----|
10
口口口① |①---|
口②口⑤ |②-③-|
⑥口③口 |④--⑤|
口④口口 |--⑥-|
11
①口口口 |①---|
⑤口②口 |②-③-|
口③口⑥ |④--⑤|
口口④口 |--⑥-|
12
口口口① |①---|
口②口⑤ |②-③-|
⑥口③口 |④--⑤|
口④口口 |--⑥-|
13
①口口口 |①---|
⑤口②口 |②-③-|
口③口⑥ |④--⑤|
口口④口 |--⑥-|
14
口口口① |①---|
口②口⑤ |②-③-|
⑥口③口 |④--⑤|
口④口口 |--⑥-|
15
①口口口 |①---|
⑤口②口 |②-③-|
口③口⑥ |④--⑤|
口口④口 |--⑥-|
16
口口口① |①---|
口②口⑤ |②-③-|
⑥口③口 |④--⑤|
口④口口 |--⑥-|
17
①口口口 |①---|
⑤口②口 |②-③-|
口③口⑥ |④--⑤|
口口④口 |--⑥-|
18
口口口① |①---|
口②口⑤ |②-③-|
⑥口③口 |④--⑤|
口口口④ |--⑥-|
19
①口口口 |①---|
⑤口②口 |②-③-|
口③口⑥ |④--⑤|
④口口口 |--⑥-|
20
口口口① |①---|
口②口⑤ |②-③-|
⑥口③口 |④--⑤|
口口口④ |--⑥-|
21
①口口口 |①---|
⑤口②口 |②-③-|
口③口⑥ |④--⑤|
④口口口 |--⑥-|
22
①口口① |①---|
口口口口 |----|
口口口口 |----|
口口口口 |----|
23
①口口① |①---|
口口口口 |----|
口口口口 |②---|
②口口② |----|
24
口①①口 |①---|
口②②口 |②---|
口③③口 |③---|
口口口口 |----|
25
口口口口 |①---|
①口口① |----|
①口口① |----|
口口口口 |----|
26
口口口口 |①---|
口①①口 |②---|
口①①口 |③---|
②口口③ |----|
27
口③口① |①---|
①口③口 |--②-|
口口口② |----|
②口口口 |③---|
28
口口口口 |①---|
口口口口 |②---|
口①口口 |③---|
②口①③ |----|
29
口③口① |①---|
①口③口 |--②-|
口口口② |----|
②口口口 |③---|
30
口口口口 |①---|
口口口口 |②---|
口①口口 |③---|
②口①③ |----|
31
口③口① |①---|
①口③口 |--②-|
口口口② |----|
②口口口 |③---|
32
口口口口 |①---|
口口口口 |②---|
口①口口 |③---|
②口①③ |----|
33
口③口① |①---|
①口③口 |--②-|
口口口② |----|
②口口口 |③---|
34
口口口口 |①---|
口口口口 |②---|
口①口口 |③---|
②口①③ |----|
35
口③①口 |①---|
①口口③ |--②-|
口口口② |----|
口②口口 |③---|
36
口口口口 |①---|
口口口口 |②---|
①口口口 |③---|
②口①③ |----|
37
口③①口 |①---|
①口口③ |--②-|
口口口② |----|
口②口口 |③---|
38
口口口口 |①---|
口口口口 |----|
①口口口 |----|
口口①口 |----|
39
口③①口 |①---|
①口口③ |--②-|
口口口② |----|
口②口口 |③---|
40
口口口口 |①---|
口口口口 |----|
①口口口 |----|
口口①口 |----|
41
口口口口 |①---|
①口口① |----|
①口口① |----|
口口口口 |----|
42
①口口① |①---|
口①①口 |----|
口口口口 |----|
口口口口 |----|
43
口③口① |①---|
①口③口 |--②-|
口口口② |----|
②口口口 |③---|
44
口口口口 |①---|
口口口口 |----|
口①口口 |----|
口口①口 |----|
45
口③口① |①---|
①口③口 |--②-|
口口口② |----|
②口口口 |③---|
46
口口口口 |①---|
口口口口 |----|
口①口口 |----|
口口①口 |----|
47
口③口① |①---|
①口③口 |--②-|
口口口② |----|
②口口口 |③---|
48
口口口口 |①---|
口口口口 |----|
口①口口 |----|
口口①口 |----|
49
口③口① |①---|
①口③口 |--②-|
口口口② |----|
②口口口 |③---|
50
口④④口 |①---|
口③口口 |②---|
口①口口 |③---|
口②①口 |④---|
51
口④④口 |①---|
口口③口 |②---|
口口①口 |③---|
口口②口 |④---|
52
口④④口 |①---|
口③口口 |②---|
口①口口 |③---|
口②口口 |④---|
53
口④④口 |①---|
口口③口 |②---|
口口①口 |③---|
口口②口 |④---|
54
口④④口 |①---|
口③口口 |②---|
口①口口 |③---|
口②口口 |④---|
55
口④④口 |①---|
口口③口 |②---|
口口①口 |③---|
口口②口 |④---|
56
口④④口 |①---|
口③口口 |②---|
口①口口 |③---|
口②口口 |④---|
57
口口口口 |①---|
①口口① |----|
①口口① |----|
口口口口 |----|
58
口口口① |①---|
口②口⑤ |②-③-|
⑥口③口 |④--⑤|
口④口口 |--⑥-|
59
①口口口 |①---|
⑤口②口 |②-③-|
口③口⑥ |④--⑤|
口口④口 |--⑥-|
60
口口口① |①---|
口②口⑤ |②-③-|
⑥口③口 |④--⑤|
口④口口 |--⑥-|
61
①口口口 |①---|
⑤口②口 |②-③-|
口③口⑥ |④--⑤|
口口④口 |--⑥-|
62
口口口① |①---|
口②口⑤ |②-③-|
⑥口③口 |④--⑤|
口④口口 |--⑥-|
63
①口口口 |①---|
⑤口②口 |②-③-|
口③口⑥ |④--⑤|
口口④口 |--⑥-|
64
口口口① |①---|
口②口⑤ |②-③-|
⑥口③口 |④--⑤|
口④口口 |--⑥-|
65
①口口口 |①---|
⑤口②口 |②-③-|
口③口⑥ |④--⑤|
口口④口 |--⑥-|
66
口口口① |①---|
口②口⑤ |②-③-|
⑥口③口 |④--⑤|
口口口④ |--⑥-|
67
①口口口 |①---|
⑤口②口 |②-③-|
口③口⑥ |④--⑤|
④口口口 |--⑥-|
68
口口口① |①---|
口②口⑤ |②-③-|
⑥口③口 |④--⑤|
口口口④ |--⑥-|
69
①口口口 |①---|
⑤口②口 |②-③-|
口③口⑥ |④--⑤|
④口口口 |--⑥-|
70
①口口① |①---|
口口口口 |----|
口口口口 |----|
口口口口 |----|
71
①口口① |①---|
口口口口 |----|
口口口口 |②---|
②口口② |----|
72
口①①口 |①---|
口②②口 |②---|
口③③口 |③---|
口口口口 |----|
73
口口口口 |①---|
①口口① |----|
①口口① |----|
口口口口 |----|
74
口①④口 |①-②-|
口⑤②口 |③---|
⑥口口③ |④-⑤-|
口口口口 |⑥---|
75
口①口口 |①-②-|
口口②口 |③---|
口④⑤③ |④---|
口⑤④口 |⑤---|
76
口④①口 |①-②-|
口②⑤口 |③---|
③口口⑥ |④-⑤-|
口口口口 |⑥---|
77
口口①口 |①-②-|
口②口口 |③---|
③⑤④口 |④---|
口④⑤口 |⑤---|
78
口①④口 |①-②-|
口⑤②口 |③---|
⑥口口③ |④-⑤-|
口口口口 |⑥---|
79
口①口口 |①-②-|
口口②口 |③---|
口④⑤③ |④---|
口⑤④口 |⑤---|
80
口④①口 |①-②-|
口②⑤口 |③---|
③口口⑥ |④-⑤-|
口口口口 |⑥---|
81
④口①④ |①-②-|
口②口口 |③---|
③口口口 |④---|
⑤口口⑤ |⑤---|
82
口①④口 |①-②-|
口⑤②口 |③---|
口③⑥口 |④-⑤-|
口口口口 |⑥---|
83
口①口口 |①-②-|
口口②口 |③---|
⑦③口⑥ |④-⑤-|
⑤口口④ |⑥-⑦-|
84
口④①口 |①-②-|
口②⑤口 |③---|
口⑥③口 |④-⑤-|
口口口口 |⑥---|
85
口口①口 |①-②-|
口②口口 |③---|
⑥口③⑦ |④-⑤-|
④口口⑤ |⑥-⑦-|
86
口口口口 |①---|
①①①① |----|
口口口口 |----|
口口口口 |----|
87
口口口口 |----|
口口口口 |----|
口口口口 |----|
口口口口 |----|
88
口⑦⑧口 |①-②-|
口⑤⑥口 |③-④-|
口③④口 |⑤-⑥-|
口①②口 |⑦-⑧-|
89
口口口口 |①---|
①口口① |----|
①口口① |----|
口口口口 |----|
90
口口①① |①---|
口④③口 |②---|
口口⑤口 |--③-|
②②口口 |④-⑤-|
91
①①口口 |①---|
口③④口 |②---|
口⑤口口 |--③-|
口口②② |④-⑤-|
92
口口①① |①---|
口④③口 |②---|
口口⑤口 |--③-|
②②口口 |④-⑤-|
93
①①口口 |①---|
口③④口 |②---|
口⑤口口 |--③-|
口口②② |④-⑤-|
94
①①①① |①---|
口口口口 |----|
口口口口 |----|
口口口口 |----|
95
①①①① |①---|
口口口口 |----|
口口口口 |----|
口口口口 |----|
96
①①①① |①---|
口⑥⑦口 |②-③-|
②④⑤③ |④-⑤-|
②口口③ |⑥-⑦-|
97
①口口① |①---|
口③④口 |②---|
口⑤口口 |--③-|
②口口② |④-⑤-|

不確定度: 0

最終更新:2014年05月21日 18:25