Dark Fall
黒龍

EXTREME

Level: 10
BPM: 202
Notes: 891

1
口口口口 |----|
口口口口 |----|
口口口口 |----|
口口口口 |----|
2
①①①① |①---|
④③②口 |②③④-|
口口⑥口 |--⑤-|
口⑦口⑤ |⑥-⑦-|
3
①口口① |①---|
口②③④ |②③④-|
口⑥口口 |--⑤-|
⑤口⑦口 |⑥-⑦-|
4
①口口① |①---|
④③②口 |②③④-|
口口⑥口 |--⑤-|
口⑦口⑤ |⑥-⑦-|
5
①口口① |①---|
口②③④ |②③④-|
口⑥口口 |--⑤-|
⑤口⑦口 |⑥-⑦-|
6
④口口⑦ |①-②-|
②口口⑤ |③-④-|
⑥口口① |⑤-⑥-|
⑧口口③ |⑦-⑧-|
7
④口口口 |①-②-|
②⑦⑧口 |③-④-|
口⑤⑥① |⑤-⑥-|
口口口③ |⑦-⑧-|
8
⑤口口① |①②③④|
⑥口口② |⑤⑥⑦⑧|
⑦⑫⑪③ |⑨-⑩-|
⑧⑩⑨④ |⑪-⑫-|
9
口①②口 |①---|
口②①口 |②---|
③口口③ |③---|
③口口③ |----|
10
①⑤口③ |①-②-|
口口⑦口 |③-④-|
口②④⑥ |⑤-⑥⑦|
⑧口口口 |--⑧-|
11
①口⑤③ |①-②-|
口⑦口口 |③-④-|
⑥②④口 |⑤-⑥⑦|
口口口⑧ |--⑧-|
12
①⑤口③ |①-②-|
口口⑦口 |③-④-|
口②④⑥ |⑤-⑥⑦|
⑧口口口 |--⑧-|
13
①口⑤③ |①-②-|
口⑦口口 |③-④-|
⑥②④口 |⑤-⑥⑦|
口口口⑧ |--⑧-|
14
①⑤口③ |①-②-|
口口⑦口 |③-④-|
口②④⑥ |⑤-⑥⑦|
⑧口口口 |--⑧-|
15
①口⑤③ |①-②-|
口⑦口口 |③-④-|
⑥②④口 |⑤-⑥⑦|
口口口⑧ |--⑧-|
16
①⑤口③ |①-②-|
口口⑦口 |③-④-|
口②④⑥ |⑤-⑥⑦|
⑧口口口 |--⑧-|
17
①口⑤③ |①-②-|
口⑦口口 |③-④-|
⑥②④口 |⑤-⑥⑦|
口口口⑧ |--⑧-|
18
①⑤⑤③ |①-②-|
口口口⑦ |③-④-|
口②④⑥ |⑤-⑥⑦|
⑧口口口 |--⑧-|
19
①⑤⑤③ |①-②-|
⑦口口口 |③-④-|
⑥②④口 |⑤-⑥⑦|
口口口⑧ |--⑧-|
20
①⑤⑤③ |①-②-|
口口口⑦ |③-④-|
口②④⑥ |⑤-⑥⑦|
⑧口口口 |--⑧-|
21
①⑤⑤③ |①-②-|
⑦口口口 |③-④-|
⑥②④口 |⑤-⑥⑦|
口口口⑧ |--⑧-|
22
①⑤⑤③ |①-②-|
口口口⑦ |③-④-|
口②④⑥ |⑤-⑥⑦|
⑧口口口 |--⑧-|
23
①⑤⑤③ |①-②-|
⑦口口口 |③-④-|
⑥②④口 |⑤-⑥⑦|
口口口⑧ |--⑧-|
24
③口口④ |①---|
口②①口 |②---|
口④③口 |③---|
口①②口 |④---|
25
口①②口 |①---|
口②①口 |②---|
③口口③ |③---|
③口口③ |----|
26
①⑤⑤③ |①-②-|
口口⑦口 |③-④-|
口②④⑥ |⑤-⑥⑦|
口口⑧⑧ |--⑧-|
27
①⑤⑤③ |①-②-|
口⑦口口 |③-④-|
⑥②④口 |⑤-⑥⑦|
⑧⑧口口 |--⑧-|
28
①⑤⑤③ |①-②-|
口口⑦口 |③-④-|
口②④⑥ |⑤-⑥⑦|
口口⑧⑧ |--⑧-|
29
①⑤⑤③ |①-②-|
口⑦口口 |③-④-|
⑥②④口 |⑤-⑥⑦|
⑧⑧口口 |--⑧-|
30
①⑤⑤③ |①-②-|
口口⑦口 |③-④-|
口②④⑥ |⑤-⑥⑦|
口口⑧⑧ |--⑧-|
31
①⑤⑤③ |①-②-|
口⑦口口 |③-④-|
⑥②④口 |⑤-⑥⑦|
⑧⑧口口 |--⑧-|
32
①⑤⑤③ |①-②-|
口口⑦口 |③-④-|
口②④⑥ |⑤-⑥⑦|
口口⑧⑧ |--⑧-|
33
①⑤⑤③ |①-②-|
口⑦口口 |③-④-|
⑥②④口 |⑤-⑥⑦|
⑧⑧口口 |--⑧-|
34
①⑤⑤③ |①-②-|
口口口⑦ |③-④-|
口②④⑥ |⑤-⑥⑦|
口口⑧⑧ |--⑧-|
35
①⑤⑤③ |①-②-|
⑦口口口 |③-④-|
⑥②④口 |⑤-⑥⑦|
⑧⑧口口 |--⑧-|
36
①⑤⑤③ |①-②-|
口口口⑦ |③-④-|
口②④⑥ |⑤-⑥⑦|
口口⑧⑧ |--⑧-|
37
①⑤⑤③ |①-②-|
⑦口口口 |③-④-|
⑥②④口 |⑤-⑥⑦|
⑧⑧口口 |--⑧-|
38
口口口口 |①---|
口①①口 |----|
口口口口 |----|
口口口口 |----|
39
口③③口 |①---|
口①①口 |--②-|
②③③② |----|
②①①② |③---|
40
口口口口 |①---|
①口口① |----|
口口口口 |----|
口①①口 |----|
41
口①②口 |①---|
口②①口 |②---|
③口口③ |③---|
③口口③ |----|
42
口①口① |①---|
①口①口 |----|
口①口口 |----|
口口口口 |----|
43
口③③口 |①---|
口①①口 |--②-|
口口口口 |----|
②口口② |③---|
44
口口口口 |①---|
①口口① |----|
口口口口 |----|
口①①口 |----|
45
口③③口 |①---|
口①①口 |--②-|
口口口口 |----|
②口口② |③---|
46
口口口口 |①---|
①口口① |----|
口口口口 |----|
口①①口 |----|
47
口③③口 |①---|
口①①口 |--②-|
口口口口 |----|
②口口② |③---|
48
口口口口 |①---|
①口口① |----|
口口口口 |----|
口①①口 |----|
49
口③③口 |①---|
口①①口 |--②-|
口口口口 |----|
②口口② |③---|
50
①口口① |①-②-|
④⑤口口 |③④⑤-|
③口⑦② |--⑥-|
口⑧口⑥ |⑦-⑧-|
51
口口口① |①-②-|
口口⑤④ |③④⑤-|
②⑦口③ |--⑥-|
⑥口⑧口 |⑦-⑧-|
52
①口口口 |①-②-|
④⑤口口 |③④⑤-|
③口⑦② |--⑥-|
口⑧口⑥ |⑦-⑧-|
53
①口口① |①-②-|
口口⑤④ |③④⑤-|
②⑦口③ |--⑥-|
⑥口⑧口 |⑦-⑧-|
54
①口口① |①-②-|
④⑤口口 |③④⑤-|
③口⑦② |--⑥-|
口⑧口⑥ |⑦-⑧-|
55
口口口① |①-②-|
口口⑤④ |③④⑤-|
②⑦口③ |--⑥-|
⑥口⑧口 |⑦-⑧-|
56
①口口① |①-②-|
④⑤口口 |③④⑤-|
③口⑦② |--⑥-|
口⑧口⑥ |⑦-⑧-|
57
口①②口 |①---|
口②①口 |②---|
③口口③ |③---|
③口口③ |----|
58
①⑤⑤③ |①-②-|
口口⑦口 |③-④-|
口②④⑥ |⑤-⑥⑦|
口⑧口⑧ |--⑧-|
59
①⑤⑤③ |①-②-|
口⑦口口 |③-④-|
⑥②④口 |⑤-⑥⑦|
⑧口⑧口 |--⑧-|
60
①⑤⑤③ |①-②-|
口口⑦口 |③-④-|
口②④⑥ |⑤-⑥⑦|
口⑧口⑧ |--⑧-|
61
①⑤⑤③ |①-②-|
口⑦口口 |③-④-|
⑥②④口 |⑤-⑥⑦|
⑧口⑧口 |--⑧-|
62
①⑤⑤③ |①-②-|
口口⑦口 |③-④-|
口②④⑥ |⑤-⑥⑦|
口⑧口⑧ |--⑧-|
63
①⑤⑤③ |①-②-|
口⑦口口 |③-④-|
⑥②④口 |⑤-⑥⑦|
⑧口⑧口 |--⑧-|
64
①⑤⑤③ |①-②-|
口口⑦口 |③-④-|
口②④⑥ |⑤-⑥⑦|
口⑧口⑧ |--⑧-|
65
①⑤⑤③ |①-②-|
口⑦口口 |③-④-|
⑥②④口 |⑤-⑥⑦|
⑧口⑧口 |--⑧-|
66
①口口③ |①-②-|
口口口口 |③-④-|
口②④口
口口口①

口⑤⑤口
口口口⑦
口口口⑥ |⑤-⑥⑦|
口⑧口⑧ |--⑧-|
67
①⑤⑤③ |①-②-|
⑦口口口 |③-④-|
⑥②④口 |⑤-⑥⑦|
⑧口⑧口 |--⑧-|
68
①⑤⑤③ |①-②-|
口口口⑦ |③-④-|
口②④⑥ |⑤-⑥⑦|
口⑧口⑧ |--⑧-|
69
①⑤⑤③ |①-②-|
⑦口口口 |③-④-|
⑥②④口 |⑤-⑥⑦|
⑧口⑧口 |--⑧-|
70
①口口③ |①-②-|
口口口口 |③-④-|
口②④口
口口口①

口⑤⑤口
口口口⑦
口口口⑥ |⑤-⑥⑦|
口⑧口⑧ |--⑧-|
71
①⑤⑤③ |①-②-|
⑦口①口 |③-④-|
⑥②④口 |⑤-⑥⑦|
⑧口⑧口 |--⑧-|
72
①口口③ |①-②-|
口③①口 |③-④-|
口②④口
口口口口

⑧口口口
口口口⑦
⑥口口⑤ |⑤-⑥-|
口⑤口口 |⑦-⑧-|
73
口①②口 |①---|
口②①口 |②---|
③口口③ |③---|
③口口③ |----|
74
④⑨⑧① |①②③④|
⑩③②⑦ |⑤-⑥-|
⑫⑥⑤⑪ |⑦⑧⑨⑩|
⑭⑥⑤⑬ |⑪⑫⑬⑭|
75
④⑦⑧① |①②③④|
⑧③②⑦ |⑤-⑥-|
⑨⑥⑤⑩ |⑦-⑧-|
⑩⑥⑤⑨ |⑨-⑩-|
76
④⑨⑧① |①②③④|
⑩③②⑦ |⑤-⑥-|
⑫⑥⑤⑪ |⑦⑧⑨⑩|
⑭⑥⑤⑬ |⑪⑫⑬⑭|
77
④⑦⑧① |①②③④|
⑧③②⑦ |⑤-⑥-|
⑨⑥⑤⑩ |⑦-⑧-|
⑩⑥⑤⑨ |⑨-⑩-|
78
④⑨⑧① |①②③④|
⑩③②⑦ |⑤-⑥-|
⑫⑥⑤⑪ |⑦⑧⑨⑩|
⑭⑥⑤⑬ |⑪⑫⑬⑭|
79
③⑦⑧① |①②③④|
⑧④②⑦ |⑤-⑥-|
⑨⑥⑤⑩ |⑦-⑧-|
⑩⑥⑤⑨ |⑨-⑩-|
80
④⑨⑧① |①②③④|
⑩③②⑦ |⑤-⑥-|
⑫⑥⑤⑪ |⑦⑧⑨⑩|
⑭⑥⑤⑬ |⑪⑫⑬⑭|
81
④⑦⑧① |①②③④|
⑧③②⑦ |⑤-⑥-|
口⑥⑤口 |⑦---|
口⑤⑥口 |⑧---|
82
⑤⑩口口 |①②③④|
⑩⑤口口 |⑤---|
③⑧⑨④ |⑥⑦⑧⑨|
①⑥⑦② |⑩---|
83
⑤⑧⑨口 |①②③④|
⑧⑤口⑨ |⑤---|
③⑥⑦④ |⑥-⑦-|
①⑥⑦② |⑧-⑨-|
84
⑤⑩口口 |①②③④|
⑩⑤口口 |⑤---|
③⑧⑨④ |⑥⑦⑧⑨|
①⑥⑦② |⑩---|
85
⑤⑧⑨口 |①②③④|
⑧⑤口⑨ |⑤---|
③⑥⑦④ |⑥-⑦-|
①⑥⑦② |⑧-⑨-|
86
②口口④ |①-②-|
口口口口 |--③-|
③口口⑤ |--④-|
①口口① |--⑤-|
87
口②④口 |--①-|
口口口口 |--②-|
口①③口 |--③-|
口口口口 |--④-|
88
⑤口口① |①②③④|
⑥口口② |⑤⑥⑦⑧|
⑦⑫⑪③ |⑨-⑩-|
⑧⑩⑨④ |⑪-⑫-|
89
口①②口 |①---|
口②①口 |②---|
③口口③ |③---|
③口口③ |----|
90
①口口① |①---|
④③②口 |②③④-|
口口⑥口 |--⑤-|
口⑦口⑤ |⑥-⑦-|
91
口口口① |①---|
口②③④ |②③④-|
口⑥口口 |--⑤-|
⑤口⑦口 |⑥-⑦-|
92
①口口口 |①---|
④③②口 |②③④-|
口口⑥口 |--⑤-|
口⑦口⑤ |⑥-⑦-|
93
口口口① |①---|
口②③④ |②③④-|
口⑥口口 |--⑤-|
⑤口⑦口 |⑥-⑦-|
94
①口口① |①---|
④③②口 |②③④-|
口口⑥口 |--⑤-|
口⑦口⑤ |⑥-⑦-|
95
①口口① |①---|
口②③④ |②③④-|
口⑥口口 |--⑤-|
⑤口⑦口 |⑥-⑦-|
96
①④⑤① |①---|
②口口③ |②-③-|
③⑥⑦② |④-⑤-|
口⑦⑥口 |⑥-⑦-|
97
口口口① |①---|
口②③④ |②③④-|
口⑥口口 |--⑤-|
⑤口⑦口 |⑥-⑦-|

不確定度: 0

最終更新:2014年05月21日 18:25