腐れ外道とチョコレゐト
ピノキオP

BASIC

Level: 4
BPM: 260
Notes: 215

1
口口口口 |----|
口口口口 |----|
口口口口 |----|
口口口口 |----|
2
口口口口 |----|
口口口口 |----|
口口口口 |----|
口口口口 |----|
3
口口口口 |----|
①口口① |----|
口口口口 |----|
口口口口 |--①-|
4
口口口口 |----|
口口口口 |----|
口口口口 |----|
口口口口 |----|
5
口口口口 |①---|
口口口口 |----|
口①①口 |----|
口口口口 |----|
6
口口口口 |①---|
①口口口 |----|
口口口口 |----|
口口口口 |----|
7
口口口口 |①---|
口①口口 |----|
口口口口 |----|
口口口口 |----|
8
口口口口 |①---|
口口①口 |----|
口口口口 |----|
口口口口 |----|
9
口口口口 |----|
口口口口 |----|
口口口口 |----|
口口口口 |----|
10
口口口口 |①---|
口口口口 |----|
口口口① |----|
口口口口 |----|
11
口口口口 |①---|
口口口口 |----|
口口①口 |----|
口口口口 |----|
12
口口口口 |①---|
口口口口 |----|
口①口口 |----|
口口口口 |----|
13
口②口口 |①---|
①口口口 |----|
口口口口 |②---|
口口口口 |----|
14
口口①口 |①---|
口口口② |----|
口口口口 |②---|
口口口口 |----|
15
口口口口 |①---|
口②口口 |----|
口口①口 |②---|
口口口口 |----|
16
口①口口 |①---|
②口口口 |----|
口口口口 |②---|
口口口口 |----|
17
口口口口 |①---|
口口②口 |----|
口①口口 |②---|
口口口口 |----|
18
口②口① |①---|
口口口口 |----|
口口口口 |②---|
口口口口 |----|
19
口口口口 |①---|
①口②口 |----|
口口口口 |②---|
口口口口 |----|
20
口口口口 |①---|
②口口口 |----|
口①口口 |②---|
口口口口 |----|
21
口口口口 |①---|
口口口② |----|
口口①口 |②---|
口口口口 |----|
22
口①①口 |①---|
②口口口 |----|
口口口口 |②---|
口口口口 |----|
23
口口口口 |①---|
口口口② |----|
口①①口 |②---|
口口口口 |----|
24
口①①口 |①---|
②口口口 |----|
口口口口 |②---|
口口口口 |----|
25
口口口口 |①---|
口口①口 |②---|
口②口④ |③---|
口口③口 |④---|
26
口口②① |①---|
口口口口 |----|
口口口口 |②---|
口口口口 |----|
27
口①口口 |①---|
②口口口 |----|
口口口口 |②---|
口口口口 |----|
28
②口口② |①---|
口口口口 |----|
口①①口 |②---|
口口口口 |----|
29
口口口口 |①---|
口口口口 |----|
口口口口 |----|
①①①① |----|
30
口口②口 |①---|
口口口① |----|
口口口口 |②---|
口口口口 |----|
31
口②口口 |①---|
①口口口 |----|
口口口口 |②---|
口口口口 |----|
32
口口口口 |①---|
口口②口 |----|
口①口口 |②---|
口口口口 |----|
33
口①口口 |①---|
②口口② |----|
口口口口 |②---|
口口口口 |----|
34
口口口口 |①---|
口②口口 |----|
口口①口 |②---|
口口口口 |----|
35
口口①口 |①---|
口口口② |----|
口口口口 |②---|
口口口口 |----|
36
口口口口 |①---|
①口口口 |----|
口②口口 |②---|
口口口口 |----|
37
口口口口 |①---|
口口口① |----|
口口②口 |②---|
口口口口 |----|
38
口口口口 |①---|
②口口口 |----|
口口口口 |②---|
口①①口 |----|
39
口①①口 |①---|
口口口② |----|
口口口口 |②---|
口口口口 |----|
40
口口口口 |①---|
②口口口 |----|
口①①口 |②---|
口口口口 |----|
41
口①口口 |①---|
口口②口 |----|
口口口口 |②---|
口口口口 |----|
42
口口口口 |①---|
①口口② |----|
口口口口 |②---|
口口口口 |----|
43
口口口口 |①---|
口②口口 |----|
口口①口 |②---|
口口口口 |----|
44
口口口口 |①---|
口口口① |----|
②②口口 |②---|
口口口口 |----|
45
口口口口 |①---|
①口口口 |----|
口口②② |②---|
口口口口 |----|
46
口口②口 |①---|
口口口① |----|
口口口口 |②---|
口口口口 |----|
47
口②口口 |①---|
①口口口 |----|
口口口口 |②---|
口口口口 |----|
48
口口口口 |①---|
口口口口 |----|
口口①口 |②---|
口②口口 |----|
49
口口口口 |①---|
口②②口 |----|
①口口口 |②---|
口口口口 |----|
50
口口口口 |①---|
口口口口 |----|
口口口① |②---|
口口②口 |----|
51
口口口口 |①---|
口口②口 |----|
口①口口 |②---|
口口口口 |----|
52
口①口口 |①---|
②口口口 |----|
口口口口 |②---|
口口口口 |----|
53
口口口口 |①---|
口口口口 |----|
口①①口 |----|
口口口口 |----|
54
口口口口 |①---|
①②口口 |----|
口口口口 |②---|
口口口口 |----|
55
口口口口 |①---|
口口口口 |----|
口口②① |②---|
口口口口 |----|
56
口口口口 |①---|
口①口口 |----|
②口口口 |②---|
口口口口 |----|
57
口口口口 |①---|
口口①口 |----|
口口口② |②---|
口口口口 |----|
58
口口②② |①---|
口口口口 |----|
口①口口 |②---|
口口口口 |----|
59
②②口口 |①---|
口口口口 |----|
口口①口 |②---|
口口口口 |----|
60
口口口口 |①---|
口①①口 |----|
口口口口 |----|
口口口口 |----|
61
口口口口 |----|
口①口口 |----|
口口口口 |①---|
口口口口 |----|
62
口口口口 |①---|
口口①口 |----|
口口口口 |----|
口口口口 |----|
63
口口口口 |①---|
口口口口 |----|
①口口口 |----|
口口口口 |----|
64
口口口口 |①---|
口口口口 |----|
口口口① |----|
口口口口 |----|
65
口口口口 |①---|
口①口口 |----|
口口口口 |----|
口口口口 |----|
66
口口口口 |①---|
口口①口 |----|
口口口口 |----|
口口口口 |----|
67
口口口口 |①---|
口口口口 |----|
口①口口 |----|
口口口口 |----|
68
口口口口 |①---|
口口口口 |----|
口口①口 |----|
口口口口 |----|
69
口口口口 |①---|
口口②口 |----|
口①口口 |②---|
口口口口 |----|
70
口①口口 |①---|
口口口口 |----|
口口口口 |----|
口口口口 |----|
71
口口①口 |①---|
口口口口 |----|
口口口口 |----|
口口口口 |----|
72
口①口口 |①---|
口口口口 |----|
口口口口 |----|
口口口口 |----|
73
口口口口 |①---|
口口①口 |----|
口②口口 |②---|
口口口口 |----|
74
口口口口 |①---|
口①口口 |----|
口口口口 |----|
口口口口 |----|
75
口口口口 |①---|
口口①口 |----|
口口口口 |----|
口口口口 |----|
76
口口口口 |①---|
口口口口 |----|
①②口口 |②---|
口口口口 |----|
77
口口口口 |①---|
口口口口 |----|
口口口口 |②---|
口口①② |----|
78
口口口口 |----|
口口口口 |----|
口口口口 |----|
口口口口 |----|
79
口口口口 |①---|
口②①口 |----|
口口口口 |②---|
口口口口 |----|
80
口②口口 |①---|
①口口口 |----|
口口口口 |②---|
口口口口 |----|
81
口口②口 |①---|
口口口① |----|
口口口口 |②---|
口口口口 |----|
82
口口口口 |①---|
口口口口 |----|
口①口口 |②---|
口口②口 |----|
83
口口口口 |①---|
口②②口 |----|
口口口① |②---|
口口口口 |----|
84
口口口口 |①---|
口口口口 |----|
①口口口 |②---|
口②口口 |----|
85
口口口口 |①---|
口②口口 |----|
口口①口 |②---|
口口口口 |----|
86
口口①口 |①---|
口口口② |----|
口口口口 |②---|
口口口口 |----|
87
口口口口 |①---|
口口口口 |----|
口①①口 |----|
口口口口 |----|
88
口②口口 |①---|
①口口口 |----|
口口口口 |②---|
口口口口 |----|
89
口口①口 |①---|
口口口② |----|
口口口口 |②---|
口口口口 |----|
90
口口口口 |①---|
口口口口 |----|
口②①口 |②---|
口口口口 |----|
91
口口口口 |①---|
口口口口 |----|
口口口口 |②---|
口①②口 |----|
92
口口口口 |①---|
口口②口 |----|
口口口① |②---|
口口口口 |----|
93
口口口口 |①---|
口①口口 |----|
②口口口 |②---|
口口口口 |----|
94
口口口口 |①---|
口口口口 |----|
口口口口 |②---|
口①②口 |----|
95
口口口口 |①---|
口口口口 |----|
口口口① |----|
口口口口 |----|
96
口口口口 |①---|
口口②① |----|
口口口口 |②---|
口口口口 |----|
97
口口口口 |①---|
口口口口 |----|
①②口口 |②---|
口口口口 |----|
98
口口口口 |①---|
口口①口 |----|
口口口② |②---|
口口口口 |----|
99
口口口口 |①---|
口①口口 |----|
②口口口 |②---|
口口口口 |----|
100
②②口口 |①---|
口口口口 |----|
口口①口 |②---|
口口口口 |----|
101
口口②② |①---|
口口口口 |----|
口①口口 |②---|
口口口口 |----|
102
口口口口 |①---|
口①①口 |----|
口口口口 |----|
口口口口 |----|
103
口口口口 |----|
口口口口 |----|
口口口口 |----|
口口口口 |----|
104
口口口口 |----|
口口口口 |----|
口口口口 |----|
口口口口 |----|
105
口口口口 |----|
口①口口 |①---|
口口③② |②---|
口口口口 |③---|
106
口口口口 |①---|
口口口口 |----|
口①口口 |----|
口口口口 |----|
107
口口口口 |①---|
①口口口 |----|
口口口口 |----|
口口口口 |----|
108
口口口口 |①---|
口口口① |----|
口口口口 |----|
口口口口 |----|
109
口①口口 |①---|
口口口口 |----|
口口口口 |----|
口口口口 |----|
110
口口口口 |①---|
口口口① |----|
口口口口 |----|
口口口口 |----|
111
口口口口 |①---|
①口口口 |----|
口口口口 |----|
口口口口 |----|
112
口口口① |①---|
口口口② |----|
口口口口 |②---|
口口口口 |----|
113
①口口口 |①---|
②口口口 |----|
口口口口 |②---|
口口口口 |----|
114
口口口① |①---|
口口口② |----|
口口口口 |②---|
口口口口 |----|
115
①口口口 |①---|
②口口口 |----|
口口口口 |②---|
口口口口 |----|
116
口口口口 |①---|
口口口口 |----|
口①①口 |----|
口口口口 |----|
117
口口口口 |----|
口口口口 |----|
口口口口 |----|
口口口口 |----|
118
口口口口 |----|
口口口口 |----|
口口口口 |----|
口口口口 |----|
119
口口口口 |----|
口口口口 |----|
口口口口 |----|
口口口口 |----|
120
口口口口 |①---|
口口口口 |----|
口口口口 |----|
口口口① |----|

不確定度: 0

最終更新:2014年05月21日 18:25