腐れ外道とチョコレゐト
ピノキオP

ADVANCED

Level: 8
BPM: 260
Notes: 497

1
口口口口 |----|
口口口口 |----|
口口口口 |----|
口口口口 |----|
2
口口口口 |----|
口口口口 |----|
口口口口 |----|
口口口口 |----|
3
①口口① |----|
口口口口 |----|
口口口口 |----|
口口口口 |--①-|
4
口口口口 |----|
口口口口 |----|
口口口口 |----|
口口口口 |----|
5
口口口口 |①---|
口①①口 |----|
口①①口 |----|
口口口口 |----|
6
口口口① |①---|
口②口口 |②---|
口口③口 |③---|
④口口口 |④---|
7
①口口口 |①---|
口口②口 |②---|
口③口口 |③---|
口口口④ |④---|
8
口口口① |①---|
口②口口 |②---|
口口③口 |③---|
④口口口 |④---|
9
口口口口 |----|
口口口口 |----|
口口口口 |----|
口口口口 |----|
10
①口口口 |①---|
口口②口 |②---|
口③口口 |③---|
口口口④ |④---|
11
口口口① |①---|
口②口口 |②---|
口口③口 |③---|
④口口口 |④---|
12
①口口口 |①---|
口口②口 |②---|
口③口口 |③---|
口口口④ |④---|
13
口②④口 |①---|
口口口口 |②---|
①口口③ |③---|
口口口口 |④---|
14
口口口口 |①---|
①口口③ |②---|
口口口口 |③---|
④口口② |④---|
15
②口口② |①---|
口①①口 |②---|
口口口口 |③---|
口③③口 |----|
16
口④口口 |①---|
口口口③ |②---|
②口口口 |③---|
口口口① |④---|
17
③口口③ |①---|
口②②口 |②---|
口①①口 |③---|
口口口口 |----|
18
口②④口 |①---|
口口口口 |②---|
③口口① |③---|
口口口口 |④---|
19
口口口口 |①---|
口④②口 |②---|
口口口口 |③---|
口①③口 |④---|
20
口口口口 |①---|
④口口③ |②---|
②口口① |③---|
口口口口 |④---|
21
口②②口 |①---|
口③③口 |②---|
口①①口 |③---|
口④④口 |④---|
22
口②③口 |①---|
①口口① |----|
①口口① |②---|
口口口口 |③---|
23
口口口口 |①---|
口③②口 |----|
口①①口 |②---|
口口口口 |③---|
24
口③口口 |①---|
口口口④ |②---|
②口口口 |③---|
口①①口 |④---|
25
口④④口 |①---|
口③③口 |②---|
口②②口 |③---|
①口口① |④---|
26
口口口口 |①---|
②口口① |②---|
④口口③ |③---|
口口口口 |④---|
27
口口③口 |①---|
口②口④ |②---|
口口口口 |③---|
口①①口 |④---|
28
①①口口 |①---|
口口②口 |--②-|
口①口口 |----|
口口②② |----|
29
口口口口 |①---|
①口口① |----|
①口口① |----|
口口口口 |----|
30
口①口口 |①---|
口口②口 |②---|
口③口口 |③---|
口口④口 |④---|
31
口口①口 |①---|
口②口口 |②---|
口口③口 |③---|
口④口口 |④---|
32
口②口口 |①---|
口口口③ |②---|
①口口口 |③---|
口口④口 |④---|
33
③口口③ |①---|
口②②口 |②---|
口①①口 |③---|
口口口口 |----|
34
口口②口 |①---|
③口口口 |②---|
口口口① |③---|
口④口口 |④---|
35
口①口口 |①---|
口口口② |②---|
口④⑤口 |③---|
口口③口 |④-⑤-|
36
口②口① |①---|
口④③口 |②---|
⑤口口口 |③-④-|
口口口口 |--⑤-|
37
口口口口 |--①-|
④口口口 |--②-|
口口①口 |③---|
口②③口 |④---|
38
口①①口 |①---|
口③口② |②---|
口口④口 |③---|
口口口口 |④---|
39
口口口口 |①---|
口口②口 |----|
口③口口 |②---|
①①口口 |③---|
40
口③②口 |①---|
口口口口 |----|
口口口口 |②---|
口口①① |③---|
41
④口口④ |①---|
②③③② |②---|
口①①口 |③---|
口口口口 |④---|
42
口③口口 |①---|
口口④口 |②---|
②口口口 |③---|
口①①口 |④---|
43
口口口③ |①---|
口口口口 |②---|
口②口口 |③---|
口口口① |----|
44
口口口口 |①---|
①口口② |②---|
④口口④ |③---|
口③③口 |④---|
45
③口口③ |①---|
③口口③ |②---|
口口口口 |③---|
②口口① |----|
46
口②③口 |①---|
口⑥⑤口 |②-③-|
④口口① |④---|
口口口口 |⑤-⑥-|
47
口⑤⑥口 |①---|
④口口口 |②-③-|
口②③口 |--④-|
口口口① |⑤-⑥-|
48
口口口口 |①-②-|
⑥③②⑥ |③-④-|
口口口① |⑤---|
口④⑤口 |⑥---|
49
①口口① |①---|
口口口口 |--②-|
口②②口 |----|
②口口② |----|
50
口口④口 |①---|
⑥③②口 |②-③-|
①⑤口口 |④---|
口口口口 |⑤-⑥-|
51
口①口口 |①---|
口口口口 |②---|
③口口② |③---|
口口④口 |④---|
52
②口口① |①-②-|
④口口③ |③-④-|
⑥口口⑤ |⑤-⑥-|
⑧口口⑦ |⑦-⑧-|
53
口②②口 |①---|
口③③口 |②---|
口①①口 |③---|
口口口口 |----|
54
④口口② |①---|
口口口口 |②---|
③口口① |③---|
口口口口 |④---|
55
口口口口 |①-②-|
④口①④ |③-④-|
口②口口 |----|
口口③口 |----|
56
口口口口 |①---|
口①③口 |②---|
⑤④②口 |③---|
口口口口 |④-⑤-|
57
④口口④ |--①-|
口口口口 |②-③-|
口口口③ |--④-|
口①②口 |----|
58
⑥口口⑥ |①-②-|
口⑤口口 |③-④-|
④口②口 |⑤---|
口③口① |⑥---|
59
口口口口 |①-②-|
口口⑤口 |③-④-|
口②口④ |⑤---|
①⑥③口 |⑥---|
60
口①①口 |①---|
①口口① |----|
口口口口 |----|
口口口口 |----|
61
口口①口 |----|
②口口口 |①---|
口口口③ |②---|
口口④口 |③-④-|
62
口口口口 |①---|
口①口口 |----|
口口②口 |----|
口口口口 |②---|
63
口口①口 |①---|
口口口口 |----|
口②口口 |----|
口口口口 |②---|
64
口①口口 |①---|
口口②口 |----|
口口口口 |②---|
口口口口 |----|
65
口口口口 |①---|
口②口口 |②---|
①口口口 |----|
口口口口 |----|
66
口口口口 |①---|
口口②口 |②---|
口口口① |----|
口口口口 |----|
67
口口口口 |①---|
口②口口 |②---|
①口口口 |----|
口口口口 |----|
68
口口口口 |①---|
口口②口 |----|
口③口① |②---|
口口口口 |③---|
69
口口口口 |①---|
口②④口 |②---|
①口③口 |③---|
口口口口 |④---|
70
口口口① |①---|
口口口口 |----|
口②口口 |----|
口口口口 |②---|
71
口①口口 |①---|
口口②口 |----|
口口口口 |----|
口口口口 |②---|
72
口②口① |①---|
口口口口 |----|
口口口口 |②---|
口口口口 |----|
73
口口口口 |①---|
口口口口 |②---|
①口③口 |③---|
口②口④ |④---|
74
口口口口 |①---|
口口口① |----|
口②口口 |----|
口口口口 |②---|
75
口①口口 |①---|
口口口口 |----|
口口口口 |----|
口口口口 |----|
76
口口口① |①---|
②口口口 |②---|
口口口③ |③---|
④口口口 |④---|
77
口①②口 |①-②-|
口④③口 |③-④-|
口⑤⑥口 |⑤-⑥-|
口⑧⑦口 |⑦-⑧-|
78
②口口② |①---|
①口口① |--②-|
③口口③ |----|
口口口口 |③---|
79
口口口④ |①-②-|
口③口口 |③---|
口口②口 |④---|
①口口① |----|
80
口③②口 |①---|
口⑤⑥口 |②-③-|
①口口④ |④---|
口口口口 |⑤-⑥-|
81
口⑥⑤口 |①---|
口口口④ |②-③-|
口③②口 |--④-|
①口口口 |⑤-⑥-|
82
口口口口 |①-②-|
⑥②③⑥ |③-④-|
①口口口 |⑤---|
口⑤④口 |⑥---|
83
①口口① |①---|
口口口口 |--②-|
口②②口 |----|
②口口② |----|
84
口④口口 |①---|
口②③⑥ |②-③-|
口口⑤① |④---|
口口口口 |⑤-⑥-|
85
口口①口 |①---|
口口口口 |②---|
②口口③ |③---|
口④口口 |④---|
86
①口口② |①-②-|
③口口④ |③-④-|
⑤口口⑥ |⑤-⑥-|
⑦口口⑧ |⑦-⑧-|
87
口②②口 |①---|
口③③口 |②---|
口①①口 |③---|
口口口口 |----|
88
②口口④ |①---|
口口口口 |②---|
①口口③ |③---|
口口口口 |④---|
89
口⑤口口 |①-②-|
④①口④ |③-④-|
口口②口 |----|
口③口口 |⑤---|
90
口口口口 |①---|
口口①口 |②---|
口②口④ |③---|
口口③口 |④---|
91
②口口② |①---|
口①口口 |--②-|
口口口口 |----|
口口口口 |----|
92
口口口口 |①---|
口口③口 |②---|
口②口① |③---|
口口④口 |④---|
93
口②③口 |①---|
口口口口 |②-③-|
①口口④ |----|
口口口口 |④---|
94
①口口③ |①---|
口口口口 |②---|
口②④口 |③---|
口口口口 |④---|
95
口口口口 |①---|
口口口口 |----|
口口口口 |----|
口①①口 |----|
96
②口口④ |①---|
口口口口 |②---|
①口口③ |③---|
口口口口 |④---|
97
口口口口 |①-②-|
④①口④ |③-④-|
口口②口 |----|
口③口口 |----|
98
口口口口 |①---|
口③①口 |②---|
口②④⑤ |③---|
口口口口 |④-⑤-|
99
④口口④ |--①-|
口口口口 |②-③-|
③口口口 |--④-|
口②①口 |----|
100
⑥口口⑥ |①-②-|
口口⑤口 |③-④-|
口②口④ |⑤---|
①口③口 |⑥---|
101
口口口口 |①-②-|
口⑤口口 |③-④-|
④口②口 |⑤---|
口③⑥① |⑥---|
102
口①①口 |①---|
①口口① |----|
口口口口 |----|
口口口口 |----|
103
口口口口 |----|
口口口口 |----|
口口口口 |----|
口口口口 |----|
104
口口口口 |----|
口口口口 |----|
口口口口 |----|
口口口口 |----|
105
口④⑤口 |----|
③口口口 |①---|
口口①口 |②-③-|
②口口口 |④-⑤-|
106
口口口口 |①---|
口②③④ |②---|
口口口① |③---|
口口口口 |④---|
107
口口口口 |----|
口口口口 |①---|
③②①口 |②---|
口口口口 |③---|
108
①②③④ |①---|
口口口口 |②---|
口口口口 |③---|
口口口口 |④---|
109
口口口口 |----|
口口口口 |----|
口口口口 |----|
口口口口 |----|
110
口口口口 |①---|
④③②口 |②---|
①口口口 |③---|
口口口口 |④---|
111
口口口口 |----|
口口口口 |①---|
口①②③ |②---|
口口口口 |③---|
112
④③②① |①---|
口口口口 |②---|
口口口口 |③---|
口口口口 |④---|
113
口口口口 |①---|
④③②① |②---|
口口口口 |③---|
口口口口 |④---|
114
口口口口 |①---|
口口口口 |②---|
④③②① |③---|
口口口口 |④---|
115
口口口口 |①---|
口口口口 |②---|
口口口口 |③---|
④③②① |④---|
116
口口口口 |①---|
口①①口 |----|
口①①口 |----|
口口口口 |----|
117
口口口口 |----|
口口口口 |----|
口口口口 |----|
口口口口 |----|
118
口口口口 |----|
口口口口 |----|
口口口口 |----|
口口口口 |----|
119
口口口口 |----|
口口口口 |----|
口口口口 |----|
口口口口 |----|
120
口口口口 |①---|
口口口口 |----|
口口口口 |----|
口口口① |----|

不確定度: 0

最終更新:2014年05月21日 18:24