腐れ外道とチョコレゐト
ピノキオP

EXTREME

Level: 10
BPM: 260
Notes: 809

1
口口口口 |----|
口口口口 |----|
口口口口 |----|
口口口口 |----|
2
口口口口 |①-②-|
⑥口口口 |③-④-|
口⑦口⑤ |⑤---|
①②③④ |⑥-⑦-|
3
③②⑥口 |①-②-|
⑦⑤①⑦ |③---|
⑦口④⑦ |④-⑤-|
口口口口 |⑥-⑦-|
4
口口口口 |----|
口口口口 |----|
口口口口 |----|
口口口口 |----|
5
口①①口 |①---|
口①①口 |----|
口①①口 |----|
口①①口 |----|
6
②口口④ |①---|
③⑥⑥⑤ |②-③-|
①⑦口① |④-⑤-|
口口口口 |⑥-⑦-|
7
口①①口 |①---|
⑥口口⑥ |②-③-|
④口口② |④-⑤-|
⑤口口③ |⑥---|
8
①口口① |①-②-|
口②④口 |③-④-|
⑥③⑤口 |⑤-⑥-|
⑦口口口 |⑦---|
9
口①②口 |①-②-|
③④口口 |--③-|
口⑤⑥口 |④-⑤-|
口口口⑦ |⑥-⑦-|
10
④口口② |①---|
⑤⑥⑥③ |②-③-|
①口⑦① |④-⑤-|
口口口口 |⑥-⑦-|
11
口①①口 |①---|
⑥口口⑥ |②-③-|
②口口④ |④-⑤-|
③口口⑤ |⑥---|
12
①口口① |①-②-|
口④②口 |③-④-|
口⑤③⑥ |⑤-⑥-|
口口口⑦ |⑦---|
13
口口①⑦ |①-②-|
②⑥口③ |③-④-|
⑧口⑤口 |⑤-⑥-|
口④口口 |⑦-⑧-|
14
口口③口 |①-②-|
口⑧⑦口 |③-④-|
口②口⑤ |⑤-⑥-|
④⑥口① |⑦-⑧-|
15
①口口① |①---|
③口口③ |②---|
口②②口 |③---|
口口口口 |----|
16
口口口口 |①---|
口⑤②口 |②-③-|
口⑦⑥口 |④-⑤-|
③①①④ |⑥-⑦-|
17
②①①② |①---|
①口口① |②---|
①口口① |③---|
口③③口 |----|
18
⑦口④口 |①---|
口①①⑥ |②-③-|
③口口② |④-⑤-|
口⑤口口 |⑥-⑦-|
19
口⑦口② |①---|
口③口口 |②-③-|
⑥口①④ |④-⑤-|
口口⑤口 |⑥-⑦-|
20
⑥口口⑦ |①-②-|
②⑧⑤① |③-④-|
口口口口 |⑤-⑥-|
口④口③ |⑦-⑧-|
21
口②②口 |①---|
③口口③ |②---|
口①①口 |③---|
④④④④ |④---|
22
②口④① |①---|
口③①口 |--②-|
④口⑤口 |③-④-|
口口口口 |⑤---|
23
⑥口口② |①---|
口口③口 |--②-|
口⑤口① |③-④-|
④口①① |⑤-⑥-|
24
口口口⑤ |①-②-|
⑥④口① |③-④-|
②口①⑦ |⑤-⑥-|
⑧口口③ |⑦-⑧-|
25
口①①口 |①---|
口③③口 |②---|
口②②口 |③---|
口④④口 |④---|
26
口口⑤口 |①-②-|
④口口① |③-④-|
②⑥口⑦ |⑤-⑥-|
⑧口口③ |⑦-⑧-|
27
⑤口口④ |①---|
口①①口 |②-③-|
③口⑥口 |④-⑤-|
口⑦②口 |⑥-⑦-|
28
口②①口 |①---|
②口口① |--②-|
口③口口 |③---|
①口④② |④---|
29
①口口① |①---|
口①①口 |----|
①口口① |----|
口口口口 |----|
30
口⑥口口 |①-②-|
②⑧⑦① |③-④-|
口口口⑤ |⑤-⑥-|
④口③口 |⑦-⑧-|
31
③口口① |①-②-|
⑥口口④ |③-④-|
②⑧⑦口 |⑤-⑥-|
口⑤口口 |⑦-⑧-|
32
⑤口①⑥ |①-②-|
口⑦④⑧ |③-④-|
口口口② |⑤-⑥-|
③口口口 |⑦-⑧-|
33
口②②口 |①---|
口口口口 |②---|
口①①口 |③---|
③③③③ |----|
34
⑤口口② |①-②-|
①口口⑥ |③-④-|
口③口④ |⑤-⑥-|
口⑦⑧口 |⑦-⑧-|
35
口②②口 |①---|
口①①口 |②---|
③④⑤③ |③---|
口口口口 |④-⑤-|
36
④口口口 |①---|
③口口口 |②---|
口口口口 |③-④-|
②⑤①口 |--⑤-|
37
口口口③ |--①-|
口④④② |--②-|
口口口口 |③---|
口口口① |④---|
38
②口⑤口 |①---|
口口口口 |②-③-|
④⑥口③ |④-⑤-|
口①①⑦ |⑥-⑦-|
39
②③口口 |①---|
④①①⑤ |--②-|
口口口口 |③-④-|
口口口口 |--⑤-|
40
④口口⑤ |①---|
口⑥③口 |--②-|
口①①口 |③-④-|
②口口口 |⑤-⑥-|
41
口②②口 |①---|
④口口④ |②---|
①口口① |③---|
口③③口 |④---|
42
口③④口 |①---|
口口②口 |②-③-|
口①①⑤ |④---|
口口口口 |⑤---|
43
口口口口 |①-②-|
口④⑤口 |③-④-|
②③④口 |⑤---|
①②口口 |----|
44
①④⑤⑦ |①-②-|
②⑥口③ |③-④-|
③口⑥② |⑤---|
⑦⑤④① |⑥-⑦-|
45
②⑤口口 |①-②-|
③口①④ |③-④-|
④①口③ |⑤---|
口口⑤② |----|
46
口⑦②⑧ |①-②-|
⑤①⑥口 |③-④-|
口③④口 |⑤-⑥-|
口口口口 |⑦-⑧-|
47
④口④口 |①-②-|
口⑦口⑤ |③-④-|
①口⑥② |--⑤-|
口③口口 |⑥-⑦-|
48
口④口⑤ |①-②-|
①口③口 |③-④-|
⑥②口⑦ |⑤-⑥-|
口⑧口口 |⑦-⑧-|
49
口口口口 |①---|
②口口② |--②-|
口口口口 |----|
②口①② |----|
50
口③②口 |①---|
⑤⑦口④ |②-③-|
口①口口 |④-⑤-|
口口⑥口 |⑥-⑦-|
51
②口③① |①---|
⑦口⑥口 |②-③-|
口④口⑤ |④-⑤-|
口口口口 |⑥-⑦-|
52
⑧④⑦⑤ |①-②-|
口口口③ |③-④-|
⑥口口口 |⑤-⑥-|
②口口① |⑦-⑧-|
53
口口口口 |①---|
口③③口 |②---|
口②②口 |③---|
口①①口 |----|
54
③口④口 |①-②-|
口口口② |③-④-|
①⑤口⑧ |⑤-⑥-|
⑦口⑥口 |⑦-⑧-|
55
口口口④ |①-②-|
口①口口 |③-④-|
③口②口 |----|
口口口口 |----|
56
①②④⑥ |①-②-|
②③⑤⑧ |③-④-|
④⑤⑦口 |⑤-⑥-|
⑥⑧口口 |⑦-⑧-|
57
口③口口 |--①-|
③口④口 |②-③-|
口④口② |--④-|
口口②① |----|
58
口口②① |①-②-|
口⑥口③ |③-④-|
⑤口⑥口 |⑤---|
④⑤口口 |⑥---|
59
①②口口 |①-②-|
③口⑥口 |③-④-|
口⑥口⑤ |⑤---|
口口⑤④ |⑥---|
60
②口①② |①---|
口①口口 |--②-|
③口①③ |----|
口①口口 |③---|
61
口②⑥口 |①---|
⑤口口口 |②---|
口④③口 |③-④-|
①口口① |⑤-⑥-|
62
①口口① |①---|
口口口口 |----|
口口口口 |----|
口②②口 |②---|
63
口口口口 |①---|
①口口① |----|
口②②口 |----|
口口口口 |②---|
64
①口口① |①---|
口口口口 |----|
口口口口 |②---|
口②②口 |----|
65
口口口口 |①-②-|
④③②① |③-④-|
口口口口 |--⑤-|
口⑦⑥⑤ |⑥-⑦-|
66
口口口口 |①-②-|
④④口口 |--③-|
②口③③ |----|
①口口口 |④---|
67
④③②① |①-②-|
口口⑤⑤ |③-④-|
口口口口 |----|
口口口口 |⑤---|
68
⑤⑥口口 |①---|
口口口口 |②-③-|
①①口口 |④---|
口④③② |⑤-⑥-|
69
口口①② |①-②-|
⑥⑤④③ |③-④-|
⑦口口口 |⑤-⑥-|
口口口口 |⑦---|
70
口口口口 |①---|
口口口口 |----|
口口①① |----|
口②②口 |②---|
71
口②②口 |①---|
①口口① |----|
口口口口 |----|
口口口口 |②---|
72
①口口① |①---|
口口口口 |----|
口②②口 |②---|
口口口口 |----|
73
口口口口 |①-②-|
口口②① |--③-|
口口口⑦ |④-⑤-|
③④⑤⑥ |⑥-⑦-|
74
口口口口 |①---|
口口③口 |----|
②③①口 |----|
口②口口 |②-③-|
75
口口①口 |①---|
口口口① |----|
口口口口 |----|
口口口口 |----|
76
①口②口 |①---|
口①口③ |②---|
②口④口 |③---|
口③口④ |④---|
77
口②口① |①-②-|
③口④口 |③-④-|
口⑥口⑤ |⑤-⑥-|
⑦口⑧口 |⑦-⑧-|
78
①口口② |①---|
②口口① |--②-|
口③③口 |----|
口口口口 |③---|
79
口口②口 |①-②-|
口③口口 |③---|
④口口④ |④---|
④①①④ |----|
80
⑧②⑦口 |①-②-|
口⑥①⑤ |③-④-|
口④③口 |⑤-⑥-|
口口口口 |⑦-⑧-|
81
口④口④ |①-②-|
⑤口⑦口 |③-④-|
②⑥口① |--⑤-|
口口③口 |⑥-⑦-|
82
⑤口④口 |①-②-|
口③口① |③-④-|
⑦口②⑥ |⑤-⑥-|
口口⑧口 |⑦-⑧-|
83
口口口口 |①---|
②口口② |--②-|
口口口口 |----|
②①口② |----|
84
口②③口 |①---|
④口⑦⑤ |②-③-|
口口①口 |④-⑤-|
口⑥口口 |⑥-⑦-|
85
①③口② |①---|
口⑥口⑦ |②-③-|
⑤口④口 |④-⑤-|
口口口口 |⑥-⑦-|
86
⑤⑦④⑧ |①-②-|
③口口口 |③-④-|
口口口⑥ |⑤-⑥-|
①口口② |⑦-⑧-|
87
口口口口 |①---|
口③③口 |②---|
口②②口 |③---|
口①①口 |----|
88
口④口③ |①-②-|
②口口口 |③-④-|
⑧口⑤① |⑤-⑥-|
口⑥口⑦ |⑦-⑧-|
89
④口口⑤ |①-②-|
口⑥①口 |③-④-|
口②⑦③ |--⑤-|
口口口口 |⑥-⑦-|
90
口③⑥口 |①-②-|
口口口② |③-④-|
①⑤口口 |⑤-⑥-|
⑦口④⑧ |⑦-⑧-|
91
②口口② |①---|
口①①口 |--②-|
②口口② |----|
口口口口 |----|
92
口口口口 |①-②-|
③口④口 |③-④-|
口⑤②口 |⑤---|
口①口⑥ |⑥---|
93
口口②① |①-②-|
口口⑥② |③-④-|
④⑦口⑤ |--⑤-|
③④口口 |⑥-⑦-|
94
①②口⑧ |①-②-|
口③口⑦ |③-④-|
口口⑥口 |⑤-⑥-|
口口⑤④ |⑦-⑧-|
95
口口口口 |①---|
口口口口 |----|
口口口口 |----|
①①口口 |----|
96
口④口③ |①-②-|
②口口口 |③-④-|
⑧口⑤① |⑤-⑥-|
口⑥口⑦ |⑦-⑧-|
97
④口口口 |①-②-|
口口①口 |③-④-|
口②口③ |----|
口口口口 |----|
98
⑥④②① |①-②-|
⑧⑤③② |③-④-|
口⑦⑤④ |⑤-⑥-|
口口⑧⑥ |⑦-⑧-|
99
口口③口 |--①-|
口④口③ |②-③-|
②口④口 |--④-|
①②口口 |----|
100
①②口口 |①-②-|
③口⑥口 |③-④-|
口⑥口⑤ |⑤---|
口口⑤④ |⑥---|
101
口口②① |①-②-|
口⑥口③ |③-④-|
⑤口⑥口 |⑤---|
④⑤口口 |⑥---|
102
①①口口 |①---|
①口口口 |----|
口口口① |----|
口口①① |----|
103
口口口口 |----|
口口口口 |----|
口口口口 |----|
口口口口 |----|
104
口口口口 |----|
口口口口 |----|
口口口口 |----|
口口口口 |----|
105
口口③口 |----|
④口口口 |①---|
口①口② |②-③-|
口⑤⑤口 |④-⑤-|
106
口口口口 |①---|
⑦①①⑥ |②-③-|
口⑤④口 |④-⑤-|
③口口② |⑥-⑦-|
107
口③口口 |----|
口口②口 |①-②-|
口口④口 |③-④-|
⑤①口口 |⑤---|
108
④口口口 |①-②-|
口⑥⑦③ |③-④-|
②口口口 |⑤-⑥-|
口⑧⑤① |⑦-⑧-|
109
口口口⑤ |①-②-|
④口口③ |--③-|
口②①口 |--④-|
口口口口 |--⑤-|
110
口⑤③口 |①---|
口②④口 |②-③-|
口口⑦口 |④-⑤-|
①⑥口① |⑥-⑦-|
111
②口口④ |----|
口口口口 |①-②-|
①口口③ |③-④-|
⑤口口口 |⑤---|
112
口①②口 |①-②-|
口③④口 |③-④-|
口⑤⑥口 |⑤-⑥-|
口⑦口口 |⑦---|
113
②口口① |①-②-|
④口口③ |③-④-|
⑥口口⑤ |⑤-⑥-|
口口口⑦ |⑦---|
114
口①②口 |①-②-|
口③④口 |③-④-|
口⑤⑥口 |⑤-⑥-|
口⑦口口 |⑦---|
115
②口口① |①-②-|
④口口③ |③-④-|
⑥口口⑤ |⑤-⑥-|
口口口⑦ |⑦---|
116
口①①口 |①---|
口①①口 |----|
口①①口 |----|
口①①口 |----|
117
口口口口 |----|
口口口口 |----|
口口口口 |----|
口口口口 |----|
118
口口口口 |----|
口口口口 |----|
口口口口 |----|
口口口口 |----|
119
口口口口 |----|
口口口口 |----|
口口口口 |----|
口口口口 |----|
120
口口口口 |①---|
口口口口 |----|
口口口口 |----|
口口口① |----|

不確定度: 0

最終更新:2014年05月21日 18:24