キャンドルの灯を
9mm Parabellum Bullet

BASIC

Level: 3
BPM: 200
Notes: 136

全程BPM在200附近飄忽不定
1
口口口口 |----|
口口口口 |----|
口口口口 |----|
口口口口 |----|
2
①口口口 |①---|
口口口口 |----|
口口口口 |----|
口口口口 |----|
3
口①口口 |①---|
口口口口 |----|
口口口口 |----|
口口口口 |----|
4
口口①口 |①---|
口口口口 |----|
口口口口 |----|
口口口口 |----|
5
口口口① |①---|
口口口口 |----|
口口口口 |----|
口口口口 |----|
6
口口口口 |①---|
口口口口 |----|
口口口① |----|
口口口口 |----|
7
口口口口 |①---|
口口口口 |----|
口口①口 |----|
口口口口 |----|
8
口口口口 |①---|
口口口口 |----|
口①口口 |----|
口口口口 |----|
9
④口口④ |①---|
口②③口 |②---|
①口口口 |③---|
口口口口 |④---|
10
口口口口 |①---|
口②口口 |----|
口口①口 |②---|
口口口口 |----|
11
口口①口 |①---|
口口口② |----|
口口口口 |②---|
口口口口 |----|
12
口口口口 |①---|
口①②口 |----|
口口口口 |②---|
口口口口 |----|
13
口口口口 |①---|
①口口口 |----|
口口口口 |----|
口口口口 |----|
14
口口口口 |①---|
口口②口 |----|
口①口口 |②---|
口口口口 |----|
15
口①口口 |①---|
②口口口 |----|
口口口口 |②---|
口口口口 |----|
16
口口口口 |①---|
口口口② |----|
口①①口 |②---|
口口口口 |----|
17
口口口口 |①---|
口口口口 |----|
口①①口 |----|
口口口口 |----|
18
口口口口 |①---|
口口②口 |----|
口①口口 |②---|
口口口口 |----|
19
口①口口 |①---|
②口口口 |----|
口口口口 |②---|
口口口口 |----|
20
口口口口 |①---|
口②①口 |----|
口口口口 |②---|
口口口口 |----|
21
口口口口 |①---|
口口口① |----|
口口口口 |----|
口口口口 |----|
22
口口口口 |①---|
口②口口 |----|
口口①口 |②---|
口口口口 |----|
23
口口①口 |①---|
口口口② |----|
口口口口 |②---|
口口口口 |----|
24
口口口口 |①---|
②口口口 |----|
口①①口 |②---|
口口口口 |----|
25
④口口④ |①---|
口③②口 |②---|
口①①口 |③---|
口口口口 |④---|
26
口口口口 |----|
口口口口 |----|
口口口口 |----|
口口口口 |----|
27
口口口口 |①---|
口①口口 |----|
口口口口 |----|
口口口口 |----|
28
口口口口 |①---|
口口①口 |----|
口口口口 |----|
口口口口 |----|
29
口口口口 |①---|
口口口口 |----|
口口口① |----|
口口口口 |----|
30
口口口口 |①---|
口口口① |----|
口口口口 |----|
口口口口 |----|
31
口口口口 |①---|
口口①口 |----|
口口口口 |----|
口口口口 |----|
32
口口口口 |①---|
口①口口 |----|
口口口口 |----|
口口口口 |----|
33
口口口口 |①---|
口口口口 |----|
①口口口 |----|
口口口口 |----|
34
口①口口 |①---|
口口口口 |----|
口口口口 |----|
口口口口 |----|
35
口口①口 |①---|
口口口口 |----|
口口口口 |----|
口口口口 |----|
36
口口口口 |①---|
口口口① |----|
口口口口 |----|
口口口口 |----|
37
口口口口 |①---|
口口口口 |----|
口口①口 |----|
口口口口 |----|
38
口口①口 |①---|
口口口口 |----|
口口口口 |----|
口口口口 |----|
39
口①口口 |①---|
口口口口 |----|
口口口口 |----|
口口口口 |----|
40
口口口口 |①---|
①口口口 |----|
口口口口 |----|
口口口口 |----|
41
④口口④ |①---|
口③②口 |②---|
口①口口 |③---|
口口口口 |④---|
42
口①①口 |①---|
②口口口 |----|
口口口口 |②---|
口口口口 |----|
43
口口口口 |①---|
口口口② |----|
口①①口 |②---|
口口口口 |----|
44
口口①口 |①---|
口②口口 |----|
口口口口 |②---|
口口口口 |----|
45
①口口① |①---|
口口口口 |----|
口口口口 |----|
口口口口 |----|
46
口口口口 |①---|
口口口口 |----|
口①口口 |----|
口口口口 |----|
47
口口口口 |①---|
口②口口 |----|
口口①口 |②---|
口口口口 |----|
48
口口口口 |①---|
口口②口 |----|
口①①口 |②---|
口口口口 |----|
49
口口口口 |①---|
口口口口 |----|
口口口口 |----|
口①①口 |----|
50
口①①口 |①---|
口口口② |----|
口口口口 |②---|
口口口口 |----|
51
口口口口 |①---|
②口口口 |----|
口①①口 |②---|
口口口口 |----|
52
口①口口 |①---|
口口②口 |----|
口口口口 |②---|
口口口口 |----|
53
①口口① |①---|
口口口口 |----|
口口口口 |----|
口口口口 |----|
54
口口口口 |①---|
口口口口 |②---|
①②③④ |③---|
口口口口 |④---|
55
口口口口 |①---|
口①①口 |----|
口口口口 |----|
口口口口 |----|
56
口口口口 |①---|
口口口口 |②---|
④③②① |③---|
口口口口 |④---|
57
口口口口 |①---|
口①①口 |----|
口口口口 |----|
口口口口 |----|
58
口口口口 |①---|
①口口口 |----|
口②②口 |②---|
口口口口 |----|
59
①口口① |①---|
口口口口 |----|
口口口口 |----|
口口口口 |----|
60
口口口口 |①---|
口口口① |----|
口②②口 |②---|
口口口口 |----|
61
①口口① |①---|
口口口口 |----|
口口口口 |----|
口口口口 |----|
62
口口口口 |①---|
①口口口 |----|
口②②口 |②---|
口口口口 |----|
63
①口口① |①---|
口口口口 |----|
口口口口 |----|
口口口口 |----|
64
口口口口 |①---|
口口口① |----|
口②②口 |②---|
口口口口 |----|
65
①口口① |①---|
口口口口 |----|
口口口口 |----|
口口口口 |----|
66
口口口口 |①---|
口口口口 |----|
①口口口 |----|
口口口口 |----|
67
口口口口 |①---|
口口口口 |----|
口①口口 |----|
口口口口 |----|
68
口口口口 |①---|
口口口口 |----|
口口①口 |----|
口口口口 |----|
69
口口口口 |①---|
口口口口 |----|
口口口① |----|
口口口口 |----|
70
口口口口 |①---|
口口①口 |----|
口口口口 |----|
口口口口 |----|
71
口口口口 |①---|
口口口口 |----|
口①口口 |----|
口口口口 |----|
72
口口口口 |①---|
①口口口 |----|
口口口口 |----|
口口口口 |----|
73
口①①口 |①---|
口口口口 |----|
口口口口 |----|
口口口口 |----|

不確定度: 0

最終更新:2014年05月21日 18:05