キャンドルの灯を
9mm Parabellum Bullet

ADVANCED

Level: 7
BPM: 200
Notes: 317

全程BPM在200附近飄忽不定
1
口口口口 |----|
口口口口 |----|
口口口口 |----|
口口口口 |----|
2
①口⑤口 |①---|
口②口④ |②---|
口口③口 |③---|
口口口口 |④---⑤-|
3
口⑤口① |①---|
④口②口 |②---|
口③口口 |③---|
口口口口 |④---⑤-|
4
①口⑤口 |①---|
口②口④ |②---|
口口③口 |③---|
口口口口 |④---⑤-|
5
口口口① |①---|
口口②口 |②---③-|
口④③口 |④---|
口口口口 |----|
6
口⑤口① |①---|
④口②口 |②---|
口③口口 |③---|
口口口口 |④---⑤-|
7
①口⑤口 |①---|
口②口④ |②---|
口口③口 |③---|
口口口口 |④---⑤-|
8
口⑤口① |①---|
④口②口 |②---|
口③口口 |③---|
口口口口 |④---⑤-|
9
②口口口 |①---②-|
口⑦⑦③ |③-④-⑤-|
④口①口 |⑥---|
口⑥口⑤ |⑦---|
10
口⑤⑤① |①---|
②口口口 |----|
口口③口 |②---③-|
口④口口 |④---⑤-|
11
①口口口 |----|
口口口② |----|
口口口口 |①---|
口口口口 |②---|
12
口口口口 |①---|
口③⑤口 |②---③-|
①④②口 |----|
口口口口 |④---⑤-|
13
口口口口 |----|
口口口口 |----|
口口口口 |----|
口口口口 |----|
14
①④⑦口 |①---②-|
口⑥②口 |③---④-|
口③⑤口 |----⑤-|
口口口口 |⑥---⑦-|
15
口口口① |----|
②⑤⑤口 |①---|
口口③口 |②---③-|
口④口口 |④---⑤-|
16
①⑤⑤口 |----|
口口口② |①---|
口③口口 |②---③-|
口口④口 |④---⑤-|
17
口口口口 |----|
口口口口 |----|
口口口口 |----|
口口口口 |----|
18
①⑤⑤口 |①---|
口口口② |----|
口③口口 |②---③-|
口口④口 |④---⑤-|
19
口口口口 |----|
②口口口 |----|
口口口① |①---|
口口口口 |②---|
20
口口口① |①---|
口⑤③口 |②---③-|
口②④口 |----|
口口口口 |④---⑤-|
21
口口口口 |----|
口口口口 |----|
口口口口 |----|
口口口口 |----|
22
口⑦④① |①---②-|
口②⑥口 |③---④-|
口⑤③口 |----⑤-|
口口口口 |⑥---⑦-|
23
①口口口 |----|
口⑤⑤② |①---|
口③口口 |②---③-|
口口④口 |④---⑤-|
24
口⑤⑤① |----|
②口口口 |①---|
口口③口 |②---③-|
口④口口 |④---⑤-|
25
②口口口 |①---②-|
口⑦⑦③ |③-④-⑤-|
④口口口 |⑥---|
⑥口①⑤ |⑦---|
26
口口④口 |----|
③口口口 |①---|
口②口① |②---③-|
口口口口 |----④-|
27
口口口口 |----|
口④口口 |①---|
口口①口 |②---③-|
②③口口 |----④-|
28
④口口① |----|
口口③口 |①---②-|
口口口② |----|
口口口口 |③---④-|
29
口口口口 |----|
口口口口 |----|
口口口口 |----|
口口口口 |----|
30
口④口口 |----|
口口口③ |①---|
①口②口 |②---③-|
口口口口 |----④-|
31
口口口口 |----|
口口④口 |①---|
口①口口 |②---③-|
口口③② |----④-|
32
①口口④ |----|
口③口口 |①---②-|
②口口口 |----|
口口口口 |③---④-|
33
口口口口 |----|
口口口口 |----|
口口口口 |----|
口口口口 |----|
34
①口口口 |----|
口口②口 |①---|
口③口口 |②---③-|
口口口④ |----④-|
35
④口③口 |----|
口②口① |①---|
口口口口 |②---③-|
口口口口 |----④-|
36
口②口④ |----|
口口口口 |①---②-|
①口③口 |----|
口口口口 |③---④-|
37
口口口口 |----|
口口口口 |----|
口口口口 |----|
口口口口 |----|
38
口口口① |----|
口②口口 |①---|
口口③口 |②---③-|
④口口口 |----④-|
39
口③口④ |----|
①口②口 |①---|
口口口口 |②---③-|
口口口口 |----④-|
40
④口②口 |----|
口口口口 |①---②-|
口③口① |----|
口口口口 |③---④-|
41
口口口② |①---②-|
③⑦⑦口 |③-④-⑤-|
口口①④ |⑥---|
⑤口⑥口 |⑦---|
42
⑤①①⑤ |①---|
口口④口 |----|
口③口口 |②---③-|
口口口② |④---⑤-|
43
口①口口 |----|
口口口② |----|
口口口口 |①---|
口口口口 |②---|
44
⑤口口⑤ |①---|
①③③口 |②---③-|
④口口④ |----|
口②②口 |④---⑤-|
45
口口口口 |----|
口口口口 |----|
口口口口 |----|
口口口口 |----|
46
口①口口 |①---②-|
口③②⑦ |③---④-|
口口④口 |----⑤-|
口⑤⑥口 |⑥---⑦-|
47
口口②口 |----|
①③口口 |①---|
口口④口 |②---③-|
⑤口口⑤ |④---⑤-|
48
口②口口 |----|
口口③① |①---|
口④口口 |②---③-|
⑤口口⑤ |④---⑤-|
49
口口口口 |----|
口口口口 |----|
口口口口 |----|
口口口口 |----|
50
⑤①①⑤ |①---|
口④口口 |----|
口口③口 |②---③-|
②口口口 |④---⑤-|
51
口口①口 |----|
②口口口 |----|
口口口口 |①---|
口口口口 |②---|
52
⑤口口⑤ |①---|
口③③① |②---③-|
④口口④ |----|
口②②口 |④---⑤-|
53
口口口口 |----|
口口口口 |----|
口口口口 |----|
口口口口 |----|
54
口口①口 |①---②-|
⑦②③口 |③---④-|
口④口口 |----⑤-|
口⑥⑤口 |⑥---⑦-|
55
口口口口 |----|
口口口口 |----|
口口口口 |----|
口口口口 |----|
56
口①口口 |①---②-|
⑦③②⑦ |③---④-|
口口④口 |----⑤-|
口⑤⑥口 |⑥---⑦-|
57
口口口口 |----|
口口口口 |----|
口口口口 |----|
口口口口 |----|
58
①口口④ |①---②-|
⑦⑤②⑦ |③---④-|
口③⑥口 |----⑤-|
⑦口口⑦ |⑥---⑦-|
59
口口口口 |----|
口口口口 |----|
口口口口 |----|
口口口口 |----|
60
④口口① |①---②-|
⑦②⑤⑦ |③---④-|
口⑥③口 |----⑤-|
⑦口口⑦ |⑥---⑦-|
61
口口口口 |----|
口口口口 |----|
口口口口 |----|
口口口口 |----|
62
①口口④ |①---②-|
⑦⑤②⑦ |③---④-|
口③⑥口 |----⑤-|
⑦口口⑦ |⑥---⑦-|
63
口口口口 |----|
口口口口 |----|
口口口口 |----|
口口口口 |----|
64
④口口① |①---②-|
⑦②⑤⑦ |③---④-|
口⑥③口 |----⑤-|
⑦口口⑦ |⑥---⑦-|
65
口口口口 |----|
口口口口 |----|
口口口口 |----|
口口口口 |----|
66
口口口口 |①---②-|
①口口④ |③---④-|
口③②口
口口口口

口⑤⑥口
⑦口口口
口口口口 |----⑤-|
口口口口 |⑥---⑦-|
67
口口口口 |----①-|
口口⑤口 |----②-|
口④③① |----③-|
②口口口 |④---⑤-|
68
口③②口 |①---②-|
⑦①口④ |③---④-|
口⑤⑥口 |----⑤-|
口口口口 |⑥---⑦-|
69
⑤口口⑤ |----①-|
口口口口 |----②-|
口④③① |----③-|
②口口口 |④---⑤-|
70
口口口口 |----|
①口口① |----①-|
②口口② |----|
口口口口 |----②-|
71
口口口口 |----|
口口口口 |----①-|
口②②口 |----|
①口口① |----②-|
72
②口口② |----|
口①①口 |----①-|
口口口口 |----|
口口口口 |----②-|

不確定度: 0

最終更新:2014年05月21日 18:05