キャンドルの灯を
9mm Parabellum Bullet

EXTREME

Level: 10
BPM: 200
Notes: 563

全程BPM在200附近飄忽不定
1
口口口口 |----|
口口口口 |----|
口口口口 |----|
口口口口 |----|
2
②④⑤口 |①---|
口口口口 |②---|
①③③① |③---|
口口口口 |④---⑤-|
3
口口口口 |①---|
①③③① |②---|
口口口口 |③---|
口⑤④② |④---⑤-|
4
②④⑤口 |①---|
口口口口 |②---|
①③③① |③---|
口口口口 |④---⑤-|
5
口口口口 |①---|
①口口① |②---③-|
口④④口 |④---|
③口口② |----|
6
口⑤④② |①---|
口口口口 |②---|
①③③① |③---|
口口口口 |④---⑤-|
7
口口口口 |①---|
①③③① |②---|
口口口口 |③---|
②④⑤口 |④---⑤-|
8
口口口② |①---|
口③③口 |②---|
①口口① |③---|
口④⑤口 |④---⑤-|
9
⑦①①⑦ |①---②-|
②⑤⑤② |③-④-⑤-|
③⑥⑥③ |⑥---|
④口口④ |⑦---|
10
口⑥口口 |①---|
⑥口⑤② |②---|
口⑤④口 |③---④-|
口①①③ |⑤---⑥-|
11
口口③② |①---|
口④口③ |②---|
④口口① |③---|
口口口口 |④---|
12
口⑤口⑤ |①---|
③口③口 |②---③-|
口②①② |----|
④口④① |④---⑤-|
13
口口口口 |①---|
口②口④ |②---|
①口③口 |③---|
口口口口 |④---|
14
①口⑦口 |①---②-|
口②③⑥ |③---④-|
⑦③⑤④ |----⑤-|
口⑥④口 |⑥---⑦-|
15
①⑤口口 |----|
⑤④③口 |①---|
口③口② |②---③-|
口口②口 |④---⑤-|
16
口口⑤① |----|
口③④⑤ |①---|
②口③口 |②---③-|
口②口口 |④---⑤-|
17
①口口② |①---|
口口口口 |②---|
③口口④ |③---|
口口口口 |④---|
18
口口⑥口 |①---|
②⑤口⑥ |②---|
口④⑤口 |③---④-|
③①①口 |⑤---⑥-|
19
①②口口 |----|
②口③口 |①---|
口口口③ |②---|
口口口口 |③---|
20
⑤口⑤口 |①---|
口③口③ |②---③-|
②①②口 |----|
①④口④ |④---⑤-|
21
口口口口 |①---|
④口②口 |②---|
口③口① |③---|
口口口口 |④---|
22
口⑦口① |①---②-|
⑥③②口 |③---④-|
④⑤③⑦ |----⑤-|
口④⑥口 |⑥---⑦-|
23
口口口口 |----|
口⑤口口 |①---|
口③④口 |②---③-|
①口口② |④---⑤-|
24
口③④口 |----|
口⑤口口 |①---|
口口口口 |②---③-|
①口口② |④---⑤-|
25
②⑦⑦② |①---②-|
③口口③ |③-④-⑤-|
④⑥⑥④ |⑥---|
⑤①①⑤ |⑦---|
26
口口口口 |----|
口口①④ |①---|
②口口口 |②---③-|
口③口口 |----④-|
27
口口口口 |----|
④①口口 |①---|
口口口② |②---③-|
口口③口 |----④-|
28
口口口口 |----|
口口口口 |①---②-|
口③①口 |----|
口②④④ |③---④-|
29
④口口③ |①---|
②口口① |②---|
口口口口 |③---|
口口口口 |④---|
30
口口①口 |①---|
⑤②口口 |②---|
口口口③ |③---④-|
口口④口 |----⑤-|
31
口口口口 |----|
口口①④ |①---|
②口口口 |②---③-|
口③口口 |----④-|
32
口口口口 |----|
口口口口 |①---②-|
口①③口 |----|
④④②口 |③---④-|
33
③口口④ |①---|
①口口② |②---|
口⑤口口 |③---|
口口口口 |④---⑤-|
34
口⑦口⑤ |①---②-|
口口④⑥ |③---|
③口①口 |④---⑤-|
口②口口 |⑥---⑦-|
35
④口口口 |----①-|
口③口口 |②---|
⑤口①② |③---④-|
口⑥⑥口 |⑤---⑥-|
36
⑥③③⑥ |----①-|
④⑥⑥① |②---③-|
⑥②⑤⑥ |④---|
口口口口 |⑤---⑥-|
37
口口口口 |----①-|
口口口口 |----②-|
④口③口 |----③-|
口①口② |----④-|
38
④口⑥口 |----①-|
⑤③口口 |②---|
口口口② |③---④-|
口口①口 |⑤---⑥-|
39
口⑥口④ |----①-|
口口③口 |②---|
②①口⑤ |③---④-|
口口口口 |⑤---⑥-|
40
⑤口口口 |----①-|
口口口② |②---③-|
口④口口 |④---|
③①⑥口 |⑤---⑥-|
41
⑦①①⑦ |①---②-|
②⑤⑤② |③-④-⑤-|
③⑥⑥③ |⑥---|
④口口④ |⑦---|
42
⑥①①⑥ |①---|
②口⑤口 |②---|
口口口④ |③---④-|
口③口口 |⑤---⑥-|
43
口口口口 |①---|
口③口口 |②---|
③①④口 |③---|
口④②口 |④---|
44
⑥③③⑥ |①---|
①口④① |②---③-|
口⑤⑤口 |④---|
②口口② |⑤---⑥-|
45
口口口口 |①---|
③口口④ |②---|
①口口② |③---|
口口口口 |④---|
46
④口口口 |①---②-|
口口③⑤ |③---④-|
口②⑥口 |----⑤-|
⑦口口① |⑥---⑦-|
47
口口口口 |①---|
口口口口 |②---|
口口口②
口口①口

口口④口
口⑤口口
③口口口 |③---④-|
口⑥⑥口 |⑤---⑥-|
48
口④口口 |①---|
②口⑤③ |②---|
口①口口 |③---④-|
口⑥⑥口 |⑤---⑥-|
49
⑩口①③ |①---②-|
④⑧口⑦ |③-④-⑤-|
口②⑨⑤ |⑥-⑦-⑧-|
⑥口口⑪ |⑨-⑩-⑪-|
50
⑥①①⑥ |①---|
口⑤②口 |②---|
④口口口 |③---④-|
口口③口 |⑤---⑥-|
51
口口口口 |①---|
口口③口 |②---|
口④①③ |③---|
口②④口 |④---|
52
⑨③③⑨ |①---|
①⑤⑧① |②---③-|
口⑦⑦④ |④-⑤-⑥-|
②口⑥② |⑦-⑧-⑨-|
53
⑪⑦⑥口 |①-②-③-|
⑤口⑫② |④-⑤-⑥-|
①⑨口⑧ |⑦-⑧-⑨-|
口③⑩④ |⑩-⑪-⑫-|
54
口口⑤④ |①---②-|
⑥③口口 |③---④-|
口⑦②口 |⑤---⑥-|
①口口⑧ |⑦---⑧-|
55
④口口③ |①---|
口口口口 |②---|
①口口② |③---|
口口口口 |④---|
56
⑧④⑧⑤ |①---②-|
②⑦③口 |③---④-|
⑧①⑧口 |⑤---⑥-|
口口⑥口 |⑦---⑧-|
57
⑫⑧口⑨ |①-②-③-|
④口⑤① |④-⑤-⑥-|
口②口⑦ |⑦-⑧-⑨-|
⑩⑥⑪③ |⑩-⑪-⑫-|
58
口⑧④⑧ |①---②-|
口③⑦② |③---④-|
⑤⑧①⑧ |⑤---⑥-|
口⑥口口 |⑦---⑧-|
59
口口③口 |①---|
①④口② |②---|
口口③口 |③---|
①④口② |④---|
60
⑧④⑧⑤ |①---②-|
②⑦③口 |③---④-|
⑧①⑧口 |⑤---⑥-|
口口⑥口 |⑦---⑧-|
61
口③口口 |①---|
②口④① |②---|
口③口口 |③---|
②口④① |④---|
62
⑤⑧④⑧ |①---②-|
口③⑦② |③---④-|
口⑧①⑧ |⑤---⑥-|
口⑥口口 |⑦---⑧-|
63
④口④口 |①---|
口②口② |②---|
③口③口 |③---|
①口①口 |④---|
64
⑧④⑧⑤ |①---②-|
②⑦③口 |③---④-|
⑧①⑧口 |⑤---⑥-|
口口⑥口 |⑦---⑧-|
65
口⑦口⑧ |①---②-|
③口⑥② |③-④-⑤-|
⑪⑨口④ |⑥-⑦-⑧-|
①⑤⑩① |⑨-⑩-⑪-|
66
④口①口 |①---②-|
口口口口 |③---④-|
口口②口
③口口③

口口⑦口
⑥口口⑥
口⑤口口 |----⑤-|
口口口口 |⑥---⑦-|
67
口口口口 |----①-|
口①④口 |②---③-|
⑤口②⑤ |----④-|
③⑥口口 |⑤---⑥-|
68
③⑤⑥③ |①---②-|
口②口口 |③---④-|
口⑦④口 |----⑤-|
口口①口 |⑥---⑦-|
69
③⑥⑥④ |----①-|
口口②口 |②---③-|
①口⑤① |④---⑤-|
⑦⑦⑦⑦ |⑥---⑦-|
70
口口口口 |----①-|
⑥⑥③③ |②---③-|
①②⑤④ |----④-|
口口口口 |⑤---⑥-|
71
①②⑤④ |----①-|
⑥⑥③③ |②---③-|
口口口口 |----④-|
口口口口 |⑤---⑥-|
72
⑦⑥口口 |----①-|
口口⑤④ |②---③-|
⑧①②⑧ |④-⑤-⑥-|
③⑧⑧③ |⑦---⑧-|

不確定度: 0

最終更新:2014年05月21日 18:05