新しい光
9mm Parabellum Bullet

BASIC

Level: 3
BPM: 180
Notes: 191

BPM在180附近飄忽不定
1
口口口口 |----|
口口口口 |----|
口口口口 |----|
口口口口 |----|
2
口口口口 |----|
口口口口 |----|
口口口口 |----|
口口口口 |----|
3
口口口口 |①---|
口①①口 |----|
口口口口 |----|
口口口口 |----|
4
口口口口 |①---|
口口口口 |----|
口①①口 |----|
口口口口 |----|
5
口口口口 |①---|
①口口① |----|
口口口口 |----|
口口口口 |----|
6
口口口口 |①---|
口口口口 |----|
①口口① |②---|
口②口口 |----|
7
口口口口 |①---|
口②口口 |----|
口口①口 |②---|
口口口口 |----|
8
口①①口 |①---|
口②②口 |----|
口口口口 |②---|
口口口口 |----|
9
口口口口 |①---|
口口口口 |----|
口①①口 |----|
口口口口 |----|
10
口口口口 |----|
口口口口 |----|
口口口口 |----|
口口口口 |----|
11
口口口口 |①---|
①口口口 |----|
口②口口 |②---|
口口口口 |----|
12
口口口口 |①---|
口口①口 |----|
口口口② |②---|
口口口口 |----|
13
口口口口 |①---|
口口口① |----|
口口②口 |②---|
口口口口 |----|
14
口口口口 |①---|
口①口口 |----|
②口口口 |②---|
口口口口 |----|
15
口口口口 |①---|
①口口口 |----|
口②口口 |②---|
口口口口 |----|
16
口口口口 |①---|
口口①口 |----|
口口口② |②---|
口口口口 |----|
17
口口口口 |①---|
口口口① |----|
口口②口 |②---|
口口口口 |----|
18
口口口口 |①---|
口①口口 |----|
②口口口 |②---|
口口口口 |----|
19
口口口口 |①---|
口口口口 |----|
口口口口 |----|
口①①口 |----|
20
口口口口 |----|
口口口口 |----|
口口口口 |----|
口口口口 |----|
21
口口口口 |--①-|
口口口口 |----|
口①①口 |----|
口口口口 |----|
22
②口口② |①---|
①口口① |--②-|
口口口口 |----|
口口口口 |----|
23
口①①口 |--①-|
口口口口 |----|
口口口口 |----|
口口口口 |----|
24
口口口口 |①---|
①口口① |----|
口口口口 |----|
口口口口 |----|
25
口口口口 |--①-|
口口口口 |----|
口①①口 |----|
口口口口 |----|
26
②口口② |①---|
①口口① |--②-|
口口口口 |----|
口口口口 |----|
27
口①①口 |--①-|
口口口口 |----|
口口口口 |----|
口口口口 |----|
28
口口口口 |①---|
①②②① |----|
口口口口 |②---|
口口口口 |----|
29
口口口口 |①---|
口口口口 |----|
口①①口 |----|
口口口口 |----|
30
口口口口 |①---|
①口口② |----|
口口口口 |②---|
口口口口 |----|
31
①①①① |①---|
口口口口 |----|
口口口口 |----|
口口口口 |----|
32
口口口口 |----|
口口口口 |----|
口口口口 |----|
口口口口 |----|
33
口口口口 |----|
口口口口 |----|
口口口口 |----|
口口口口 |----|
34
口口口口 |①---|
①口口② |----|
口口口口 |②---|
口口口口 |----|
35
①①①① |①---|
口口口口 |----|
口口口口 |----|
口口口口 |----|
36
口口口口 |----|
口口口口 |----|
口口口口 |----|
口口口口 |----|
37
口口口口 |①---|
口①①口 |----|
口①①口 |----|
口口口口 |----|
38
口口口口 |----|
口口口口 |----|
口口口口 |----|
口口口口 |----|
39
口口口口 |--①-|
口口口口 |----|
口①①口 |----|
口口口口 |----|
40
②口口② |①---|
①口口① |--②-|
口口口口 |----|
口口口口 |----|
41
口①①口 |--①-|
口口口口 |----|
口口口口 |----|
口口口口 |----|
42
口口口口 |①---|
①口口① |----|
口口口口 |----|
口口口口 |----|
43
口口口口 |--①-|
口口口口 |----|
口①①口 |----|
口口口口 |----|
44
②口口② |①---|
①口口① |--②-|
口口口口 |----|
口口口口 |----|
45
口①①口 |--①-|
口口口口 |----|
口口口口 |----|
口口口口 |----|
46
口口口口 |①---|
①②②① |----|
口口口口 |②---|
口口口口 |----|
47
口口口口 |①---|
口口口口 |----|
口①①口 |----|
口口口口 |----|
48
口口口口 |①---|
①口口② |----|
口口口口 |②---|
口口口口 |----|
49
①①①① |①---|
口口口口 |----|
口口口口 |----|
口口口口 |----|
50
口口口口 |----|
口口口口 |----|
口口口口 |----|
口口口口 |----|
51
口口口口 |----|
口口口口 |----|
口口口口 |----|
口口口口 |----|
52
口口口口 |①---|
①口口② |----|
口口口口 |②---|
口口口口 |----|
53
①①①① |①---|
口口口口 |----|
口口口口 |----|
口口口口 |----|
54
口口口口 |----|
口口口口 |----|
口口口口 |----|
口口口口 |----|
55
口口口口 |①---|
①口口口 |----|
口②口口 |②---|
口口口口 |----|
56
口口口口 |①---|
口口口② |----|
口口①口 |②---|
口口口口 |----|
57
口口①口 |①---|
口口口口 |----|
口口口口 |----|
口口口口 |----|
58
口口口口 |①---|
口①口口 |----|
口口口口 |----|
口口口口 |----|
59
口口口口 |①---|
口口口口 |----|
口口①口 |----|
口口口口 |----|
60
口口口口 |①---|
口口口口 |----|
口口口口 |----|
口①口口 |----|
61
口口口口 |①---|
口口口口 |----|
口口口口 |----|
口口①口 |----|
62
口口口口 |①---|
口口口口 |----|
口①口口 |----|
口口口口 |----|
63
口口口口 |①---|
①①①① |----|
口口口口 |----|
口口口口 |----|
64
口①口口 |----|
口口口口 |----|
口口口口 |①---|
口口口口 |----|
65
口口②口 |①---|
口口①口 |----|
口口口口 |②---|
口口口口 |----|
66
口②口口 |①---|
口①口口 |----|
口口口口 |②---|
口口口口 |----|
67
口口口口 |①---|
口口①口 |----|
口②口口 |②---|
口口口口 |----|
68
口口口口 |①---|
①口口① |----|
口口②口 |②---|
口口口口 |----|
69
口口口口 |①---|
口①口口 |----|
口②口口 |②---|
口口口口 |----|
70
口口口口 |①---|
口口①口 |----|
口②②口 |②---|
口口口口 |----|
71
口口口口 |①---|
①①①① |----|
口口口口 |----|
口口口口 |----|
72
口口①口 |----|
口口口口 |----|
口口口口 |①---|
口口口口 |----|
73
口②口口 |①---|
口①①口 |----|
口口口口 |②---|
口口口口 |----|
74
口口②口 |①---|
口①①口 |----|
口口口口 |②---|
口口口口 |----|
75
口口口口 |①---|
口①①口 |----|
口②②口 |②---|
口口口口 |----|
76
口口口口 |①---|
①口口① |----|
口口口口 |----|
口口口口 |----|
77
口口口口 |----|
口口口口 |----|
口口①口 |①---|
口口口口 |----|
78
口口②口 |①---|
口①口口 |----|
口口口口 |②---|
口口口口 |----|
79
口口口口 |①---|
①①①① |----|
口口口口 |----|
口口口口 |----|
80
①①①① |①---|
口口口口 |----|
口口口口 |----|
口口口口 |----|
81
①②③④ |①---|
口口口口 |②---|
口口口口 |③---|
口口口口 |④---|
82
口口口口 |①---|
口口①口 |----|
口②③口 |②---|
口口口口 |③---|
83
口口口口 |①---|
口④③② |②---|
口口口① |③---|
口口口口 |④---|
84
口口口口 |①---|
②③口口 |----|
口①口口 |②---|
口口口口 |③---|
85
口口①口 |①---|
口口③② |----|
口口口口 |②---|
口口口口 |③---|
86
②①口口 |①---|
③④口口 |②---|
口口口口 |③---|
口口口口 |④---|
87
口口口口 |①---|
口口口口 |----|
口①①口 |----|
口口口口 |----|

不確定度: 0

最終更新:2014年05月21日 18:04