新しい光
9mm Parabellum Bullet

EXTREME

Level: 10
BPM: 180
Notes: 897

BPM在180附近飄忽不定
1
口口口口 |----|
口口口口 |----|
口口口口 |----|
口口口口 |----|
2
①口口② |①---|
口口口口 |②---|
口口口口 |③---|
③口口④ |④---|
3
口④②口 |①---|
④口口② |②---|
①口口③ |③---|
口①③口 |④---|
4
口口⑩口 |①②③④|
口⑥①⑩ |⑤⑥⑦⑧|
④⑨⑤⑦ |⑨---|
⑧②⑨③ |⑩---|
5
②①④② |①---|
①④口口 |②---|
口口③口 |③---|
口③口口 |④---|
6
口⑩口口 |①②③④|
口⑩③⑤ |⑤⑥⑦⑧|
④②⑨① |⑨---|
⑧⑥⑨⑦ |⑩---|
7
①口口① |①---|
口③口口 |----|
②口③口 |②---|
口②口口 |③---|
8
口②①口 |①---|
②口③① |②---|
口③口④ |③---|
口口④口 |④---|
9
④口口③ |①--②|
口②⑤口 |--③-|
①⑥①口 |--④-|
口①口① |⑤-⑥-|
10
⑤①①③ |①--②|
①③口③ |--③-|
④口④② |--④-|
④②②⑥ |⑤-⑥-|
11
口④②口 |①-②③|
④口③口 |--④-|
口③口①
口口①口

⑥口口⑦
口口口口
⑤口口⑧ |⑤-⑥-|
口口口口 |⑦-⑧-|
12
⑦口①⑥ |①-②③|
口③口① |--④-|
④口③口 |⑤-⑥-|
⑧④②⑤ |⑦-⑧-|
13
口④②口 |①-②③|
④口③口 |--④-|
口③口①
口口①口

⑥口口⑦
口口口口
⑤口口⑧ |⑤-⑥-|
口口口口 |⑦-⑧-|
14
⑦口①⑥ |①-②③|
口③口① |--④-|
④口③口 |⑤-⑥-|
⑧④②⑤ |⑦-⑧-|
15
口④②口 |①-②③|
④口③口 |--④-|
口③口①
口口①口

⑥口口⑦
口口口口
⑤口口⑧ |⑤-⑥-|
口口口口 |⑦-⑧-|
16
⑦口①⑥ |①-②③|
口③口① |--④-|
④口③口 |⑤-⑥-|
⑧④②⑤ |⑦-⑧-|
17
口④②口 |①-②③|
④口③口 |--④-|
口③口①
口口①口

⑥口口⑦
口口口口
⑤口口⑧ |⑤-⑥-|
口口口口 |⑦-⑧-|
18
⑤③①⑥ |①-②-|
④①③② |③-④-|
口④②口 |⑤-⑥-|
⑦⑧⑨⑩ |⑦⑧⑨⑩|
19
口口①口 |①---|
口①口① |----|
口口①口 |----|
口口口口 |----|
20
口口口① |----|
口口口口 |----|
口口口口 |----|
①口口口 |--①-|
21
①口口口 |①-②-|
③⑤④② |--③-|
⑤②③④ |④-⑤-|
口⑦⑥① |⑥-⑦-|
22
口①③口 |①--②|
③④⑤① |--③-|
口⑤④口 |--④-|
②口口② |--⑤-|
23
①口口① |--①-|
口⑤口② |--②-|
③口⑥口 |③-④-|
口口口④ |⑤-⑥-|
24
⑩⑧①⑨ |①②③④|
②⑪⑦⑫ |⑤⑥⑦⑧|
⑬⑥⑭③ |⑨⑩⑪⑫|
⑯④⑤⑮ |⑬⑭⑮⑯|
25
口③口口 |--①-|
①④②口 |--②-|
口①⑤② |③-④-|
口口⑥口 |⑤-⑥-|
26
口③①口 |①--②|
①⑤④③ |--③-|
口④⑤口 |--④-|
②口口② |--⑤-|
27
①③口② |--①-|
口口④口 |--②-|
口⑤口口 |③-④-|
②口⑥① |⑤-⑥-|
28
⑤⑨口⑥ |①②③④|
③⑦⑧④ |⑤⑥⑦⑧|
①口⑨② |⑨---|
口⑨口口 |----|
29
口口①口 |①---|
口口口③ |----|
②①口③ |----|
②口①口 |②-③-|
30
①①口口 |①-②-|
②②口口 |--③-|
口口口口
口③口③

口⑤⑤⑤
口口口口
口口口口 |--④-|
④口④口 |--⑤-|
31
⑬⑭⑯⑮ |①②③④|
②⑥⑧④ |⑤⑥⑦⑧|
①⑤⑦③ |⑨⑩⑪⑫|
⑨⑩⑫⑪ |⑬⑭⑮⑯|
32
⑬⑭⑯⑮ |①②③④|
②⑥⑧④ |⑤⑥⑦⑧|
①⑤⑦③ |⑨⑩⑪⑫|
⑨⑩⑫⑪ |⑬⑭⑮⑯|
33
口口口口 |①--②|
①口口口 |--③-|
口③②口
口口口口

口口口口
⑥④口口
⑥口口⑤ |④---|
口口口⑤ |⑤-⑥-|
34
口口①① |①-②-|
口口②② |--③-|
口口口口
③口③口

⑤⑤⑤口
口口口口
口口口口 |--④-|
口④口④ |--⑤-|
35
⑮⑯⑭⑬ |①②③④|
④⑧⑥② |⑤⑥⑦⑧|
③⑦⑤① |⑨⑩⑪⑫|
⑪⑫⑩⑨ |⑬⑭⑮⑯|
36
⑮⑯⑭⑬ |①②③④|
④⑧⑥② |⑤⑥⑦⑧|
③⑦⑤① |⑨⑩⑪⑫|
⑪⑫⑩⑨ |⑬⑭⑮⑯|
37
⑤口口口 |①---|
①口④① |②---|
①③②① |③---|
口口口⑤ |④-⑤-|
38
②口口① |①---|
口口口口 |----|
口口口口 |----|
①口口② |--②-|
39
口口口① |①-②-|
②④⑤③ |--③-|
④③②⑤ |④-⑤-|
①⑥⑦口 |⑥-⑦-|
40
口③①口 |①--②|
①⑤④③ |--③-|
口④⑤口 |--④-|
②口口② |--⑤-|
41
①口口① |--①-|
②口⑤口 |--②-|
口⑥口③ |③-④-|
④口口口 |⑤-⑥-|
42
⑨①⑧⑩ |①②③④|
⑫⑦⑪② |⑤⑥⑦⑧|
③⑭⑥⑬ |⑨⑩⑪⑫|
⑮⑤④⑯ |⑬⑭⑮⑯|
43
口口③口 |--①-|
口②④① |--②-|
②⑤①口 |③-④-|
口⑥口口 |⑤-⑥-|
44
口①③口 |①--②|
③④⑤① |--③-|
口⑤④口 |--④-|
②口口② |--⑤-|
45
②口③① |--①-|
口④口口 |--②-|
口口⑤口 |③-④-|
①⑥口② |⑤-⑥-|
46
⑥口⑨⑤ |①②③④|
④⑧⑦③ |⑤⑥⑦⑧|
②⑨口① |⑨---|
口口⑨口 |----|
47
口①口口 |①---|
③口口口 |----|
③口①② |----|
口①口② |②-③-|
48
口口①① |①-②-|
口口②② |--③-|
口口口口
③口③口

⑤口⑤口
口口口口
口口口口 |--④-|
口④口④ |--⑤-|
49
⑮⑯⑭⑬ |①②③④|
④⑧⑥② |⑤⑥⑦⑧|
③⑦⑤① |⑨⑩⑪⑫|
⑪⑫⑩⑨ |⑬⑭⑮⑯|
50
⑮⑯⑭⑬ |①②③④|
④⑧⑥② |⑤⑥⑦⑧|
③⑦⑤① |⑨⑩⑪⑫|
⑪⑫⑩⑨ |⑬⑭⑮⑯|
51
口口口口 |①--②|
口口口① |--③-|
口②③口
口口口口

口口口口
口口④⑥
⑤口口⑥ |④---|
⑤口口口 |⑤-⑥-|
52
①①口口 |①-②-|
②②口口 |--③-|
口口口口
口③口③

口⑤口⑤
口口口口
口口口口 |--④-|
④口④口 |--⑤-|
53
⑬⑭⑯⑮ |①②③④|
②⑥⑧④ |⑤⑥⑦⑧|
①⑤⑦③ |⑨⑩⑪⑫|
⑨⑩⑫⑪ |⑬⑭⑮⑯|
54
⑬⑭⑯⑮ |①②③④|
②⑥⑧④ |⑤⑥⑦⑧|
①⑤⑦③ |⑨⑩⑪⑫|
⑨⑩⑫⑪ |⑬⑭⑮⑯|
55
⑬⑭⑯⑮ |①②③④|
②⑥⑧④ |⑤⑥⑦⑧|
①⑤⑦③ |⑨⑩⑪⑫|
⑨⑩⑫⑪ |⑬⑭⑮⑯|
56
口⑦⑦口 |①-②-|
③⑥④① |③-④-|
①②⑧③ |⑤-⑥-|
口⑤⑤口 |⑦-⑧-|
57
①口口② |①---|
③口口④ |②---|
④口口③ |③---|
②口口① |④---|
58
③①①② |①---|
口口口口 |----|
口口口口 |②---|
②①①③ |③---|
59
口口口口 |①---|
②④③① |②---|
①③④② |③---|
口口口口 |④---|
60
口①①口 |①---|
口口口口 |----|
口口③口 |②---|
口①①② |③---|
61
口①口口 |①---|
①口口口 |----|
口③口口 |②---|
②口口口 |③---|
62
口②①口 |①---|
②④③① |②---|
④口口③ |③---|
口口口口 |④---|
63
口⑧⑤⑦ |①②③④|
⑥口口③ |⑤⑥⑦⑧|
口④①口
②口口口

口口口口
口⑭⑨口
⑩口⑮⑪ |⑨⑩⑪⑫|
⑯⑫口⑬ |⑬⑭⑮⑯|
64
⑥⑨③⑤ |①②③④|
④口⑦① |⑤⑥⑦⑧|
⑧②口⑩ |⑨--⑩|
⑪口口口 |--⑪---|
65
口②①口 |①---|
口①口口 |----|
口口①③ |②--③|
④①口口 |--④---|
66
口②①口 |①---|
口①口③ |----|
④口①口 |②--③|
口①口口 |--④-|
67
口口②口 |①---|
②③④③ |②---|
口④①④ |③---|
①③④③ |④---|
68
口①口① |①---|
③②③口 |----|
①口①口 |②---|
口②③② |③---|
69
①③①口 |①---|
口②口口 |----|
③①③① |②---|
口②口② |③---|
70
③口②口 |①---|
口口①③ |②---|
④②口② |③---|
①口①④ |④---|
71
口①口② |①---|
口①口口 |----|
口口①口 |----|
②口①口 |②---|
72
①②③口 |①-②-③-|
④⑤⑥口 |④-⑤-⑥-|
⑦⑧⑨口 |⑦-⑧-⑨-|
⑩⑪⑫口 |⑩-⑪-⑫-|
73
①口②① |①---|
口口口① |----|
③口口口 |②--③|
口口口④ |--④-|
74
①②口① |①---|
①口口口 |----|
口口口③ |②--③|
④口口口 |--④-|
75
口③④口 |①---|
②③④① |②---|
口①②口 |③---|
④①②③ |④---|
76
①②口① |①---|
⑥⑤④③ |----|
①口口① |②---|
口口②口 |③④⑤⑥|
77
③③①口 |①---|
③口口口 |----|
口口口口 |②---|
口①②② |③---|
78
口口②② |①---|
口③④② |②---|
③③④④ |③---|
①①口口 |④---|
79
口①②口 |①---|
①口口② |----|
③口口③ |②---|
②②①① |③---|
80
①口口① |①---|
④③②口 |②-③-④-|
口①①口
口口口口

⑩⑨⑧口
口口口口
口口口口 |⑤-⑥-⑦-|
口⑤⑥⑦ |⑧-⑨-⑩-|
81
④口口② |①---|
口口口口 |②---|
①④②③ |③---|
①口口③ |④---|
82
口③②口 |①---|
①②③① |----|
②口口③ |②---|
口①①口 |③---|
83
口④③口 |①---|
①③④② |②---|
③①②④ |③---|
口②①口 |④---|
84
口口口口 |①-②-③-|
⑤⑧⑥⑦ |④---|
口⑤⑦口 |⑤-⑥-|
④③②① |⑦-⑧-|
85
①口口① |①---|
②口口③ |----|
①②③① |②---|
②口口③ |③---|
86
①③④② |①---|
③①②④ |②---|
①口口② |③---|
③口口④ |④---|
87
④口口③ |①--②|
口②⑤口 |--③-|
①⑥①口 |--④-|
口①口口 |⑤-⑥-|
88
⑤①①③ |①--②|
①③口③ |--③-|
④口④② |--④-|
④②②⑥ |⑤-⑥-|
89
口⑤⑥⑧ |①-②③|
④⑧②⑦ |④⑤⑥⑦|
口③⑧口 |⑧---|
⑧①①口 |----|

不確定度: 0

最終更新:2014年05月21日 18:03