愛しき為の闘い
新井大樹

BASIC

Level: 3
BPM: 148
Notes: 205

1
口口口口 |----|
口口口口 |----|
口口口口 |----|
口口口口 |----|
2
口口口口 |①---|
口①口口 |----|
口口口口 |----|
口口口口 |----|
3
口口口口 |----|
口口口口 |----|
口口口口 |----|
口口口口 |----|
4
口口口口 |①---|
口口①口 |----|
口口口口 |----|
口口口口 |----|
5
口口口口 |①---|
口口口口 |②---|
①②③④ |③---|
口口口口 |④---|
6
口口口口 |①---|
口口口口 |----|
口口口口 |----|
口口①口 |----|
7
口口口口 |①---|
口口口口 |----|
口口口口 |----|
口①口口 |----|
8
口口口口 |①---|
口①口口 |----|
口口口口 |----|
口口口口 |----|
9
口口口口 |①---|
口口①口 |----|
口口口口 |----|
口口口口 |----|
10
口口口口 |①---|
口口口口 |----|
口口①口 |----|
口口口口 |----|
11
口口口口 |①---|
口口口口 |----|
口①口口 |----|
口口口口 |----|
12
口①口口 |①---|
口口口口 |----|
口口口口 |----|
口口口口 |----|
13
口口①口 |①---|
口口口口 |----|
口口口口 |----|
口口口口 |----|
14
口口①口 |①---|
口②口口 |②---|
口口③口 |③---|
口④口口 |④---|
15
口①口口 |①---|
口口②口 |②---|
口③口口 |③---|
口口④口 |④---|
16
口口①口 |①---|
口②口口 |②---|
口口③口 |③---|
口④口口 |④---|
17
口①口口 |①---|
口口②口 |②---|
口③口口 |③---|
口口④口 |④---|
18
①②③④ |①---|
口口口口 |②---|
口口口口 |③---|
口口口口 |④---|
19
口口口口 |①---|
④③②① |②---|
口口口口 |③---|
口口口口 |④---|
20
口口口口 |①---|
口口口口 |②---|
①②③④ |③---|
口口口口 |④---|
21
口口口口 |①---|
口口口口 |②---|
口口口口 |③---|
④③②① |④---|
22
口口口口 |①---|
口①①口 |----|
②口口口 |②---|
口口口口 |----|
23
口口口口 |①---|
口口口口 |----|
口口口① |②---|
口②口口 |----|
24
口口口口 |①---|
口①①口 |----|
口口口② |②---|
口口口口 |----|
25
口口口口 |①---|
口口口口 |----|
①口口口 |②---|
口口②口 |----|
26
口口口口 |①---|
口①①口 |----|
②口口口 |②---|
口口口口 |----|
27
口口口口 |①---|
口口口口 |----|
口口口① |②---|
口②口口 |----|
28
口口口口 |①---|
口①①口 |----|
口口口② |②---|
口口口口 |----|
29
口口口口 |①---|
口口口口 |----|
①口口口 |②---|
口口②口 |----|
30
①口口口 |①---|
口②口口 |----|
口口口口 |②---|
口口口口 |----|
31
口口口① |①---|
口口②口 |----|
口口口口 |②---|
口口口口 |----|
32
①口口口 |①---|
口②口口 |----|
口口口口 |②---|
口口口口 |----|
33
口口口① |①---|
口口②口 |----|
口口口口 |②---|
口口口口 |----|
34
口口口口 |①---|
口口口口 |----|
①口口口 |②---|
口②口口 |----|
35
口口口口 |①---|
口口口口 |----|
口口口① |②---|
口口②口 |----|
36
口口口口 |①---|
口口口口 |----|
①口口口 |②---|
口②口口 |----|
37
口口口口 |①---|
口口口口 |----|
口口口① |②---|
口口②口 |----|
38
口口口口 |①---|
①②口口 |----|
口口口口 |②---|
口口口口 |----|
39
口口口口 |①---|
口口口口 |----|
口口②① |②---|
口口口口 |----|
40
口口口口 |①---|
口口②① |----|
口口口口 |②---|
口口口口 |----|
41
口口口口 |①---|
口口口口 |----|
①②口口 |②---|
口口口口 |----|
42
口口口口 |①---|
①②口口 |----|
口口口口 |②---|
口口口口 |----|
43
口口口口 |①---|
口口口口 |----|
口口②① |②---|
口口口口 |----|
44
口口口口 |①---|
口口②① |----|
口口口口 |②---|
口口口口 |----|
45
口口口口 |①---|
口口口口 |----|
①②口口 |②---|
口口口口 |----|
46
口口口口 |①---|
口①①口 |----|
口口口口 |----|
口口口口 |----|
47
口口口口 |①---|
口口口口 |----|
口①①口 |----|
口口口口 |----|
48
口口口口 |①---|
口①①口 |----|
口口口口 |----|
口口口口 |----|
49
口口口口 |①---|
口口口口 |②---|
口①①口
口②口口

口口口口
口口口口
口④口口 |③---|
口口③口 |④---|
50
口口口口 |①---|
口①①口 |----|
口口口口 |----|
口口口口 |----|
51
口口口口 |①---|
口口口口 |②---|
口①①口
口②口口

口口口口
口口口口
口④口口 |③---|
口口③口 |④---|
52
口口口口 |①---|
口①①口 |----|
口口口口 |----|
口口口口 |----|
53
口口口口 |①---|
口①①口 |②---|
口②②口 |③---|
口③③口 |----|
54
①②③口 |①---|
口口口口 |②---|
口口口口 |③---|
口口口口 |----|
55
口口口口 |①---|
口口口口 |②---|
口口口口 |③---|
口③②① |----|
56
口口口口 |①---|
①②③口 |②---|
口口口口 |③---|
口口口口 |----|
57
口口口口 |①---|
口口口口 |②---|
口③②① |③---|
口口口口 |----|
58
①②③口 |①---|
口口口口 |②---|
口口口口 |③---|
口口口口 |----|
59
口口口口 |①---|
口口口口 |②---|
口口口口 |③---|
口③②① |----|
60
口口口口 |①---|
①②③口 |②---|
口口口口 |③---|
口口口口 |----|
61
口口口口 |①---|
口口口口 |②---|
④③②① |③---|
口口口口 |④---|
62
口①①口 |①---|
口口口口 |----|
口②②口 |②---|
口口口口 |----|
63
①口口口 |①---|
②口口口 |②---|
③口口口 |③---|
④口口口 |④---|
64
口口口① |①---|
口口口② |②---|
口口口③ |③---|
口口口④ |④---|
65
口口口口 |①---|
口①④口 |②---|
口②③口 |③---|
口口口口 |④---|
66
①②④③ |①---|
口口口口 |②---|
口口口口 |③---|
口口口口 |④---|
67
①口口口 |①---|
②口口口 |②---|
③口口口 |③---|
④口口口 |④---|
68
口口口① |①---|
口口口② |②---|
口口口③ |③---|
口口口④ |④---|
69
口口口口 |①---|
口①④口 |②---|
口②③口 |③---|
口口口口 |④---|
70
①②③④ |①-②-|
⑧⑦⑥⑤ |③-④-|
口口口口 |⑤-⑥-|
口口口口 |⑦-⑧-|
71
口口口口 |①---|
口②②口 |----|
口口口口 |②---|
口①①口 |----|
72
口①①口 |①---|
口口口口 |----|
口②②口 |②---|
口口口口 |----|
73
口口口口 |①---|
口②②口 |----|
口口口口 |②---|
口①①口 |----|
74
口①①口 |①---|
口口口口 |----|
口②②口 |②---|
口口口口 |----|

不確定度: 0

最終更新:2014年05月21日 18:02