愛しき為の闘い
新井大樹

EXTREME

Level: 10
BPM: 148
Notes: 892

1
口口口口 |----|
口口口口 |----|
口口口口 |----|
口口口口 |----|
2
①⑦口③ |①②-③|
口②④口 |④⑤⑥⑦|
口口口⑤
口口⑥口

⑮口⑪口
⑧口口⑫
口⑨⑬口 |⑧⑨⑩⑪|
⑩口口⑭ |⑫⑬⑭⑮|
3
口口口口 |----|
口口口口 |----|
口口口口 |----|
口口口口 |----|
4
③口⑦① |①②-③|
口④②口 |④⑤⑥⑦|
⑤口口口
口⑥口口

口⑪口⑮
⑫口口⑧
口⑬⑨口 |⑧⑨⑩⑪|
⑭口口⑩ |⑫⑬⑭⑮|
5
⑤⑦口口 |①②③④|
口①②口 |-⑤⑥⑦|
口口口⑥
口③④口

口口⑨⑪
⑭口⑮⑬
⑫⑩⑧口 |⑧⑨⑩⑪|
口口口口 |⑫⑬⑭⑮|
6
③④口口 |①②-③|
口口口口 |④⑤⑥⑦|
⑦口⑥⑤
口①②口

口口⑩⑨
⑮口⑭⑬
口⑧口口 |⑧⑨⑩⑪|
⑪⑫口口 |⑫⑬⑭⑮|
7
②口口④ |①-②-|
口①口口 |③-④-|
口③③口
口口口口

口口口口
口⑦⑦口
⑥口口口 |⑤-⑥-|
口⑤⑤⑧ |⑦-⑧-|
8
③④口口 |①②-③|
①口口② |④⑤⑥⑦|
⑦口⑥⑤
口口口口

口口⑩⑨
⑮口⑭⑬
口⑧口口 |⑧⑨⑩⑪|
⑪⑫口口 |⑫⑬⑭⑮|
9
②口口④ |①-②-|
口①口口 |③-④-|
口③③口
口口口口

口口口口
口⑦⑦口
⑥口口口 |⑤-⑥-|
口⑤⑤⑧ |⑦-⑧-|
10
③④口口 |①②-③|
①口口② |④⑤⑥⑦|
⑦口⑥⑤
口口口口

口口⑩⑨
⑮口⑭⑬
口⑧口口 |⑧⑨⑩⑪|
⑪⑫口口 |⑫⑬⑭⑮|
11
②口口④ |①-②-|
口①口口 |③-④-|
口③③口
口口口口

口口口口
口⑦⑦口
⑥口口口 |⑤-⑥-|
口⑤⑤⑧ |⑦-⑧-|
12
③④口口 |①②-③|
①口口② |④⑤⑥⑦|
⑦口⑥⑤
口口口口

口口⑩⑨
⑮口⑭⑬
口⑧口口 |⑧⑨⑩⑪|
⑪⑫口口 |⑫⑬⑭⑮|
13
②口口④ |①-②-|
口①口口 |③-④-|
口③③口
口口口口

口口口口
口⑦⑦口
⑥口口口 |⑤-⑥-|
口⑤⑤⑧ |⑦-⑧-|
14
③④口口 |①②-③|
①口口② |④⑤⑥⑦|
⑦口⑥⑤
口口口口

口口⑩⑨
⑮口⑭⑬
口⑧口口 |⑧⑨⑩⑪|
⑪⑫口口 |⑫⑬⑭⑮|
15
②口口④ |①-②-|
口①口口 |③-④-|
口③③口
口口口口

口口口口
口⑦⑦口
⑥口口口 |⑤-⑥-|
口⑤⑤⑧ |⑦-⑧-|
16
③④口口 |①②-③|
①口口② |④⑤⑥⑦|
⑦口⑥⑤
口口口口

口口⑩⑨
⑮口⑭⑬
口⑧口口 |⑧⑨⑩⑪|
⑪⑫口口 |⑫⑬⑭⑮|
17
②口口④ |①-②-|
口①口口 |③-④-|
口③③口
口口口口

口口口口
口⑦⑦口
⑥口口口 |⑤-⑥-|
口⑤⑤⑧ |⑦-⑧-|
18
③④口口 |①②-③|
①口口② |④⑤⑥⑦|
⑦口⑥⑤
口口口口

口口⑩⑨
⑮口⑭⑬
口⑧口口 |⑧⑨⑩⑪|
⑪⑫口口 |⑫⑬⑭⑮|
19
②口口④ |①-②-|
口①口口 |③-④-|
口③③口
口口口口

口口口口
口⑦⑦口
⑥口口口 |⑤-⑥-|
口⑤⑤⑧ |⑦-⑧-|
20
③④口口 |①②-③|
①口口② |④⑤⑥⑦|
⑦口⑥⑤
口口口口

口口⑩⑨
⑮口⑭⑬
口⑧口口 |⑧⑨⑩⑪|
⑪⑫口口 |⑫⑬⑭⑮|
21
②口口④ |①-②-|
口①口口 |③-④-|
口③③口
口口口口

口口口口
口⑦⑦口
⑥口口口 |⑤-⑥-|
口⑤⑤⑧ |⑦-⑧-|
22
口①①② |①---|
①⑥⑥① |②--③|
口④口② |④⑤--|
③口⑤口 |⑥---|
23
口口口口 |①---|
①⑥⑥② |②--③|
②口④① |④⑤--|
口⑤口③ |⑥---|
24
口①①② |①---|
①⑥⑥① |②--③|
口④口② |④⑤--|
③口⑤口 |⑥---|
25
口口口口 |①---|
①⑥⑥② |②--③|
②口④① |④⑤--|
口⑤口③ |⑥---|
26
口①①② |①---|
①⑥⑥① |②--③|
口④口② |④⑤--|
③口⑤口 |⑥---|
27
口口口口 |①---|
①⑥⑥② |②--③|
②口④① |④⑤--|
口⑤口③ |⑥---|
28
口①①② |①---|
①⑥⑥① |②--③|
口④口② |④⑤--|
③口⑤口 |⑥---|
29
口⑥⑤口 |①---|
①⑧⑦② |②---|
②⑩⑨① |③④⑤⑥|
口④③口 |⑦⑧⑨⑩|
30
①⑧⑥口 |①②③④|
①口口③ |⑤⑥⑦⑧|
④口口②
口⑤⑦口

口口口⑭
口⑨⑫⑮
⑯⑪⑩口 |⑨⑩⑪⑫|
⑬口口口 |⑬⑭⑮⑯|
31
⑥③③⑧ |①-②-|
口⑤⑤口 |③-④-|
口⑦⑦① |⑤-⑥-|
口②④口 |⑦-⑧-|
32
口⑧⑥口 |①②③④|
①口口③ |⑤⑥⑦⑧|
④口口②
口⑤⑦口

口口口⑭
口⑨⑫⑮
⑯⑪⑩口 |⑨⑩⑪⑫|
⑬口口口 |⑬⑭⑮⑯|
33
⑥③③⑧ |①-②-|
口⑤⑤口 |③-④-|
口⑦⑦① |⑤-⑥-|
口②④口 |⑦-⑧-|
34
口⑧⑥口 |①②③④|
①口口③ |⑤⑥⑦⑧|
④口口②
口⑤⑦口

口口口⑭
口⑨⑫⑮
⑯⑪⑩口 |⑨⑩⑪⑫|
⑬口口口 |⑬⑭⑮⑯|
35
⑥③③⑧ |①-②-|
口⑤⑤口 |③-④-|
口⑦⑦① |⑤-⑥-|
口②④口 |⑦-⑧-|
36
口⑧⑥口 |①②③④|
①口口③ |⑤⑥⑦⑧|
④口口②
口⑤⑦口

口口口⑭
口⑨⑫⑮
⑯⑪⑩口 |⑨⑩⑪⑫|
⑬口口口 |⑬⑭⑮⑯|
37
⑥③③⑧ |①-②-|
口⑤⑤口 |③-④-|
口⑦⑦① |⑤-⑥-|
口②④口 |⑦-⑧-|
38
⑥⑤口口 |①②-③|
口口③④ |④⑤⑥⑦|
口口⑦口
①口口②

口口⑮口
⑩⑨口口
⑭⑬口⑧ |⑧⑨⑩⑪|
口口⑪⑫ |⑫⑬⑭⑮|
39
口④口① |①-②-|
口③③口 |③-④-|
口口口口
口②口口

口口口⑧
⑥口口口
口⑤⑤⑦ |⑤-⑥-|
口口⑦口 |⑦-⑧-|
40
⑥⑤口口 |①②-③|
口口③④ |④⑤⑥⑦|
口口⑦口
①口口②

口口⑮口
⑩⑨口口
⑭⑬口⑧ |⑧⑨⑩⑪|
口口⑪⑫ |⑫⑬⑭⑮|
41
口④口① |①-②-|
口③③口 |③-④-|
口口口口
口②口口

口口口⑧
⑥口口口
口⑤⑤⑦ |⑤-⑥-|
口口⑦口 |⑦-⑧-|
42
⑥⑤口口 |①②-③|
口口③④ |④⑤⑥⑦|
口口⑦口
①口口②

口口⑮口
⑩⑨口口
⑭⑬口⑧ |⑧⑨⑩⑪|
口口⑪⑫ |⑫⑬⑭⑮|
43
口④口① |①-②-|
口③③口 |③-④-|
口口口口
口②口口

口口口⑧
⑥口口口
口⑤⑤⑦ |⑤-⑥-|
口口⑦口 |⑦-⑧-|
44
⑥⑤口口 |①②-③|
口口③④ |④⑤⑥⑦|
口口⑦口
①口口②

口口⑮口
⑩⑨口口
⑭⑬口⑧ |⑧⑨⑩⑪|
口口⑪⑫ |⑫⑬⑭⑮|
45
口④口① |①-②-|
口③③口 |③-④-|
口口口口
口②口口

口口口⑧
⑥口口口
口⑤⑤⑦ |⑤-⑥-|
口口⑦口 |⑦-⑧-|
46
口③③口 |①---|
口口口口 |--②-|
④②②④ |--③-|
①口口① |--④-|
47
口③③口 |①---|
①口口① |--②-|
④②②④ |--③-|
口口口口 |--④-|
48
口③③口 |①---|
①口口① |--②-|
④②②④ |--③-|
口口口口 |--④-|
49
口④⑤口 |①-②-|
①⑧⑨① |③-④⑤|
口②⑥口 |--⑥-|
⑦口口③ |⑦-⑧⑨|
50
口⑥⑥② |①---|
③口口① |②--③|
口④口口 |④⑤--|
⑤口口口 |⑥---|
51
口口口④ |①②③-|
③②①口 |④-⑤⑥|
⑦⑤⑥口 |--⑦-|
⑨口口⑧ |⑧-⑨-|
52
②口口口 |①---|
口⑥⑥③ |②--③|
口口④① |④⑤--|
口口口⑤ |⑥---|
53
①⑥⑦① |①-②-|
②⑧口② |③-④-|
③⑤⑤③ |⑤-⑥-|
④口口④ |⑦-⑧-|
54
口④口口 |①②-③|
口口②⑤ |-④⑤⑥|
①⑥口①
③①①口

⑫口口⑧
口⑨⑬口
⑭口⑩口 |⑦⑧⑨⑩|
口⑪口⑦ |⑪⑫⑬⑭|
55
口口②④ |①②-③|
口口口⑤ |-④⑤⑥|
口③口⑥
口口①口

⑩口口口
⑪口⑧口
口口口口 |⑦-⑧-|
口⑨⑨⑦ |⑨-⑩⑪|
56
口④口口 |①②-③|
口口口⑤ |-④⑤⑥|
①⑥③口
②口口口

⑫口口⑧
口⑨⑬口
⑭口口⑩ |⑦⑧⑨⑩|
口⑪口⑦ |⑪⑫⑬⑭|
57
口⑤②口 |①②-③|
口口口口 |④-⑤-|
口③④口
口口①口

口口口⑨
⑥口口⑩
⑦口口口 |⑥-⑦-|
口⑧⑧口 |⑧-⑨⑩|
58
口口④口 |①②-③|
⑤口口口 |-④⑤⑥|
口③⑥①
口口口②

⑧口口⑫
口⑬⑨口
⑩口口⑭ |⑦⑧⑨⑩|
⑦口⑪口 |⑪⑫⑬⑭|
59
④②口口 |①②-③|
⑤口口口 |-④⑤⑥|
⑥③口口
口①口口

口口口⑩
口口⑧⑪
口口口口 |⑦-⑧-|
⑦⑨⑨口 |⑨-⑩⑪|
60
口口④口 |①②-③|
⑤口口口 |-④⑤⑥|
口③⑥①
口口口②

⑧口口⑫
口⑬⑨口
⑩口口⑭ |⑦⑧⑨⑩|
⑦口⑪口 |⑪⑫⑬⑭|
61
口②⑤口 |①②-③|
口口口口 |④-⑤-|
口④③口
口①口口

口口口口
口⑨⑩⑥
口口口⑦ |⑥-⑦-|
口⑧⑧口 |⑧-⑨⑩|
62
口口口口 |----|
①口口① |①---|
⑤④③② |②③④⑤|
⑥⑦⑧⑨ |⑥⑦⑧⑨|
63
口①②⑥ |①②-③|
③口口口 |④⑤⑥⑦|
口⑤口④
⑦口口口

⑨⑮口口
口⑪⑧⑫
⑬口⑭口 |⑧⑨⑩⑪|
口口⑩口 |⑫⑬⑭⑮|
64
⑦口①口 |①②-③|
③口④口 |④⑤⑥⑦|
口②口⑥
口⑤口口

口⑬口⑧
口⑨口⑫
口⑮⑩口 |⑧⑨⑩⑪|
⑪口口⑭ |⑫⑬⑭⑮|
65
口口口⑥ |①②-③|
②⑤①口 |④⑤⑥⑦|
⑦口口④
口③口口

⑬⑨口口
口口⑭⑩
口⑮⑧口 |⑧⑨⑩⑪|
⑪口⑫口 |⑫⑬⑭⑮|
66
口口口④ |①②-③|
②⑤口口 |④⑤⑥⑦|
⑦口⑥①
口③口口

口⑨口口
⑬口⑭⑧
口⑪口⑫ |⑧⑨⑩⑪|
口⑮⑩口 |⑫⑬⑭⑮|
67
⑨⑤⑭① |①②-③|
⑬②⑩④ |④⑤⑥⑦|
⑦⑪⑥⑫ |⑧⑨⑩⑪|
③⑮口⑧ |⑫⑬⑭⑮|
68
口⑤口⑥ |①②-③|
口②口① |④⑤⑥⑦|
⑦口④口
③口口口

⑨口口口
⑬口⑩⑭
口⑪口⑧ |⑧⑨⑩⑪|
口⑮口⑫ |⑫⑬⑭⑮|
69
口⑤①口 |①②-③|
口②⑥口 |④⑤⑥⑦|
口⑦口④
③口口口

⑬口⑫口
⑨口口⑩
⑮口⑭口 |⑧⑨⑩⑪|
口⑪口⑧ |⑫⑬⑭⑮|
70
口口口⑥ |①②-③|
⑦②口口 |④⑤⑥⑦|
口⑤口④
③口①口

⑪口口口
口⑬⑧⑫
⑮口⑭口 |⑧⑨⑩⑪|
口⑨口⑩ |⑫⑬⑭⑮|
71
口①①口 |①---|
②⑥⑥口 |②--③|
口④口② |④⑤--|
③口⑤口 |⑥---|
72
口口口口 |①---|
①⑥⑥② |②--③|
②口④① |④⑤--|
口⑤口③ |⑥---|
73
口口口口 |①---|
②⑥⑥① |②--③|
①④口② |④⑤--|
③口⑤口 |⑥---|
74
口⑦⑦口 |①---|
①⑥⑥② |②--③|
②口④① |④⑤--|
口⑤口③ |⑥-⑦-|

不確定度: 0

最終更新:2014年05月21日 18:02