Agitated by Emotion
THE CLASS ADMIRALS

BASIC

Level: 4
BPM: 158
Notes: 224

1
口口口口 |----|
口口口口 |----|
口口口口 |----|
口口口口 |----|
2
口口口口 |①---|
口口口口 |----|
口口口口 |②---|
①口口② |----|
3
口口口口 |----|
口口口口 |----|
口①①口 |①---|
口口口口 |----|
4
口口口口 |①---|
口口口口 |----|
口口口口 |②---|
①口口② |----|
5
口口口口 |----|
口口口口 |--①-|
口②②口 |--②-|
口①①口 |----|
6
口口口口 |①---|
口口口口 |----|
口口口口 |②---|
①口口② |----|
7
口口口口 |----|
口口口口 |----|
口①①口 |①---|
口口口口 |----|
8
口口口口 |①---|
口口口口 |----|
口口口口 |②---|
①口口② |----|
9
口口口口 |----|
口③③口 |----|
口②②口 |①--②|
口①①口 |--③-|
10
①口口口 |①---|
②口口口 |----|
口口口口 |②---|
口口口口 |----|
11
口口口口 |①---|
口②②口 |----|
口①口口 |②---|
口口口口 |----|
12
口口口① |①---|
口口口② |----|
口口口口 |②---|
口口口口 |----|
13
口口口口 |①---|
口②②口 |----|
口口①口 |②---|
口口口口 |----|
14
口口口口 |①---|
①口口口 |----|
②口口口 |②---|
口口口口 |----|
15
口口口口 |①---|
口口口口 |----|
口②②口 |②---|
口①口口 |----|
16
口口口口 |①---|
口口口① |----|
口口口② |②---|
口口口口 |----|
17
口口口口 |①---|
口口口口 |----|
口②②口 |②---|
口口①口 |----|
18
口口口口 |①---|
①②③④ |②---|
口口口口 |③---|
口口口口 |④---|
19
口口口口 |①---|
口④④口 |②---|
口③②① |③---|
口口口口 |④---|
20
口口口口 |①---|
口口口口 |②---|
①②③④ |③---|
口口口口 |④---|
21
口口口口 |①---|
③④②① |②---|
口口口口 |③---|
口口口口 |④---|
22
①②③④ |①---|
口口口口 |②---|
口口口口 |③---|
口口口口 |④---|
23
口口口口 |①---|
口③②① |②---|
口④④口 |③---|
口口口口 |④---|
24
口口口口 |①---|
口口口口 |②---|
口口口口 |③---|
①②③④ |④---|
25
口口口口 |①---|
口口口口 |②---|
③④②① |③---|
口口口口 |④---|
26
口口口口 |①---|
口①②口 |②---|
口③④口 |③---|
口口口口 |④---|
27
口口口口 |①---|
口④④口 |②---|
口③口口 |③---|
口①②口 |④---|
28
口口口口 |①---|
①口口口 |②---|
口口口② |③---|
③口口④ |④---|
29
口口口口 |①---|
③口口② |②---|
①口口④ |③---|
口口口口 |④---|
30
口口口口 |①---|
口①②口 |②---|
口③④口 |③---|
口口口口 |④---|
31
口口口口 |①---|
口④④口 |②---|
口③口口 |③---|
口①②口 |④---|
32
口口口口 |①---|
①口口口 |②---|
口口口② |③---|
③口口④ |④---|
33
口口口口 |①---|
③口口② |②---|
①口口④ |③---|
口口口口 |④---|
34
①①①① |①---|
口口口口 |----|
口口口口 |----|
口口口口 |----|
35
口口口口 |①---|
口③口口 |②---|
②口④口 |③---|
口①口口 |④---|
36
①①①① |①---|
口口口口 |----|
口口口口 |----|
口口口口 |----|
37
口口口口 |①---|
口口③口 |②---|
口④口② |③---|
口口①口 |④---|
38
①①①① |①---|
口口口口 |----|
口口口口 |----|
口口口口 |----|
39
口口口口 |①---|
口③口口 |②---|
②口④口 |③---|
口①口口 |④---|
40
①①①① |①---|
口口口口 |----|
口口口口 |----|
口口口口 |----|
41
口口口口 |①---|
口口③口 |②---|
口④口② |③---|
口口①口 |④---|
42
口口口口 |①---|
口口③④ |②---|
口口③④ |③---|
口②①口 |④---|
43
口口口口 |①---|
④③口口 |②---|
④③口口 |③---|
口①②口 |④---|
44
口口口口 |①---|
口口③④ |②---|
口口③④ |③---|
口②①口 |④---|
45
①口口③ |①---|
口②④口 |②---|
口口口口 |③---|
口口口口 |④---|
46
口口口口 |①---|
口口②口 |----|
①②口① |②---|
口口口口 |----|
47
口口②口 |①---|
口①口口 |----|
口口①口 |②---|
口②口口 |----|
48
口①口口 |①---|
口口口② |----|
②口口口 |②---|
口口①口 |----|
49
口口口② |①---|
①口口口 |----|
口口口① |②---|
②口口口 |----|
50
口口口口 |①---|
口口③④ |②---|
口口③④ |③---|
口②①口 |④---|
51
口口口口 |①---|
④③口口 |②---|
④③口口 |③---|
口①②口 |④---|
52
口口口口 |①---|
口口③④ |②---|
口口③④ |③---|
口②①口 |④---|
53
①口口③ |①---|
口②④口 |②---|
口口口口 |③---|
口口口口 |④---|
54
口口口口 |①---|
口口②口 |----|
①②口① |②---|
口口口口 |----|
55
口口口口 |①---|
口①口② |----|
②口①口 |②---|
口口口口 |----|
56
口①口② |①---|
口口口口 |----|
口口口口 |②---|
②口①口 |----|
57
①口口口 |①---|
口口口口 |----|
口口口口
口口口①

③③③③
口②②口
口②②口 |②---|
口口口口 |③---|

不確定度: 0

最終更新:2014年05月21日 18:01