Agitated by Emotion
THE CLASS ADMIRALS

ADVANCED

Level: 7
BPM: 158
Notes: 493

1
口口口口 |----|
口口口口 |----|
口口口口 |----|
口口口口 |----|
2
口口口口 |①---|
口口口口 |----|
①口口② |②---|
①口口② |----|
3
③③③③ |----|
口①口口 |--①-|
口口②口 |②--③|
口口口口 |----|
4
口口口口 |①---|
口口口口 |----|
①口口② |②---|
①口口② |----|
5
口③③口 |----|
①口④② |--①-|
口口口口 |②-③-|
口口口口 |--④-|
6
口口口口 |①---|
口口口口 |----|
①口口② |②---|
①口口② |----|
7
③③③③ |----|
口①口口 |--①-|
口口②口 |②--③|
口口口口 |----|
8
口口口口 |①---|
口口口口 |----|
①口口② |②---|
①口口② |----|
9
口③③口 |----|
①口口② |----|
口①②口 |①--②|
口口口口 |--③-|
10
口口口口 |①-②-|
③口⑥口 |③-④-|
②⑤④口 |⑤-⑥-|
①口口① |----|
11
⑥口口⑥ |①-②-|
口口口③ |③-④-|
口④⑤② |⑤--⑥|
口口口① |----|
12
口口口口 |①-②-|
③口⑥口 |③-④-|
②⑤④口 |⑤-⑥-|
①口口① |----|
13
口⑤口④ |①-②-|
③口⑥口 |③-④-|
口⑦口② |⑤-⑥-|
①口⑧口 |⑦-⑧-|
14
口口口口 |①-②-|
③口⑥口 |③-④-|
②⑤④口 |⑤-⑥-|
①口口① |----|
15
⑥口口⑥ |①-②-|
口口口③ |③-④-|
口④⑤② |⑤--⑥|
口口口① |----|
16
口口口口 |①-②-|
③口⑥口 |③-④-|
②⑤④口 |⑤-⑥-|
①口口① |----|
17
⑦⑦⑧⑧ |①-②-|
⑤⑤⑥⑥ |③-④-|
③③④④ |⑤-⑥-|
①①②② |⑦-⑧-|
18
口口口口 |①-②-|
口口口口 |③-④-|
④⑥②⑧ |⑤-⑥-|
⑤③⑦① |⑦-⑧-|
19
⑥口口⑥ |①-②-|
口⑤⑤① |③-④-|
④口②口 |⑤--⑥|
口③口口 |----|
20
口⑥⑦口 |①-②-|
⑤口口⑧ |③-④-|
④口口① |⑤-⑥-|
口③②口 |⑦-⑧-|
21
⑦⑦⑧⑧ |①-②-|
⑤⑤⑥⑥ |③-④-|
③③④④ |⑤-⑥-|
①①②② |⑦-⑧-|
22
口口口口 |①-②-|
口口口口 |③-④-|
④⑥②⑧ |⑤-⑥-|
⑤③⑦① |⑦-⑧-|
23
⑥口口⑥ |①-②-|
口⑤⑤① |③-④-|
④口②口 |⑤--⑥|
口③口口 |----|
24
口⑥⑦口 |①-②-|
⑤口口⑧ |③-④-|
④口口① |⑤-⑥-|
口③②口 |⑦-⑧-|
25
⑦⑦⑧⑧ |①-②-|
⑤⑤⑥⑥ |③-④-|
③③④④ |⑤-⑥-|
①①②② |⑦-⑧-|
26
口口口口 |①-②-|
口口口口 |③-④-|
口②④口
①口①③

口口口口
口口口口
⑥口口⑧ |⑤-⑥-|
口⑤⑦口 |⑦-⑧-|
27
⑥口口⑥ |①-②-|
口⑤⑤① |③-④-|
④口②口 |⑤--⑥|
口③口口 |----|
28
⑥口口⑧ |①-②-|
口⑤⑦口 |③-④-|
口②④口 |⑤-⑥-|
①口①③ |⑦-⑧-|
29
⑦⑦⑧⑧ |①-②-|
⑤⑤⑥⑥ |③-④-|
③③④④ |⑤-⑥-|
①①②② |⑦-⑧-|
30
口口口口 |①-②-|
口口口口 |③-④-|
口②④口
①口①③

口口口口
口口口口
⑥口口⑧ |⑤-⑥-|
口⑤⑦口 |⑦-⑧-|
31
⑥口口⑥ |①-②-|
口⑤⑤① |③-④-|
④口②口 |⑤--⑥|
口③口口 |----|
32
⑥口口⑧ |①-②-|
口⑤⑦口 |③-④-|
口②④口 |⑤-⑥-|
①口①③ |⑦-⑧-|
33
⑦⑦⑧⑧ |①-②-|
⑤⑤⑥⑥ |③-④-|
③③④④ |⑤-⑥-|
①①②② |⑦-⑧-|
34
口口口口 |①---|
口⑤③口 |--②-|
①④⑥② |③-④-|
①口口② |⑤-⑥-|
35
⑥口口⑥ |①-②-|
口口口口 |③-④-|
①⑤口④ |⑤-⑥-|
口②③口 |----|
36
口口口口 |①---|
口⑤③口 |--②-|
①④⑥② |③-④-|
①口口② |⑤-⑥-|
37
⑥口口⑥ |①-②-|
口口口口 |③-④-|
①⑤口④ |⑤-⑥-|
口②③口 |----|
38
口口口口 |①---|
口⑤③口 |--②-|
①④⑥② |③-④-|
①口口② |⑤-⑥-|
39
⑥口口⑥ |①-②-|
口口口口 |③-④-|
①⑤口④ |⑤-⑥-|
口②③口 |----|
40
口口口口 |①---|
口⑤③口 |--②-|
①④⑥② |③-④-|
①口口② |⑤-⑥-|
41
⑥口口⑥ |①-②-|
口口口口 |③-④-|
①⑤口④ |⑤-⑥-|
口②③口 |----|
42
口⑤⑤口 |①---|
口口②④ |②---|
③口④口 |③--④|
①③口① |--⑤-|
43
①口口① |①---|
③口口口 |②-③-|
④②④口 |----|
口口③口 |④---|
44
口⑤⑤口 |①---|
④②口① |②---|
口④口③ |③--④|
口①③口 |--⑤-|
45
①口口① |①---|
口口口口 |②-③-|
③口④口 |----|
③口④② |④---|
46
②④②④ |①--②|
③①③① |--③-|
口⑤口⑤ |④--⑤|
⑥口⑥口 |--⑥-|
47
口⑤口⑤ |①--②|
⑥③⑥③ |--③-|
②④②④ |④--⑤|
口①口① |--⑥-|
48
②⑤②⑤ |①---|
⑥③⑥③ |②-③-|
④口④口 |④---|
口①口① |⑤-⑥-|
49
⑤⑤④④ |①---|
⑦⑦⑥⑥ |②-③-|
②①③① |④-⑤-|
②口③口 |⑥-⑦-|
50
口⑤⑤② |①---|
口口口④ |②---|
③口④口 |③--④|
①③口① |--⑤-|
51
①口口① |①---|
③口口口 |②-③-|
④②④口 |----|
口口③口 |④---|
52
口⑤⑤口 |①---|
④②口① |②---|
口④口③ |③--④|
口①③口 |--⑤-|
53
①口口① |①---|
口口口口 |②-③-|
③口④口 |----|
③口④② |④---|
54
②④②④ |①--②|
③①③① |--③-|
口⑤口⑤ |④--⑤|
⑥口⑥口 |--⑥-|
55
口⑤口⑤ |①--②|
⑥③⑥③ |--③-|
②④②④ |④--⑤|
口①口① |--⑥-|
56
②口②口 |①---|
口③口③ |②-③-|
口口口口
口①口①

口口口口
口口口口
④⑤④⑤ |④---|
口⑥口⑥ |⑤-⑥-|
57
①①①① |①---|
口口口口 |----|
口口口口
口口口口

口⑥⑦口
②④⑤③
②口口③ |②-③-|
②口口③ |④⑤⑥⑦|

不確定度: 0

最終更新:2014年05月21日 18:01