Agitated by Emotion
THE CLASS ADMIRALS

EXTREME

Level: 10
BPM: 158
Notes: 703

1
口口口口 |----|
口口口口 |----|
口口口口 |----|
口口口口 |----|
2
③口口⑨ |①②-③|
⑩⑥⑫④ |-④⑤⑥|
⑦⑪⑤口 |⑦⑧-⑨|
①②⑧口 |-⑩⑪⑫|
3
口⑥⑤⑦ |①-②-|
⑦④⑧口 |③-④⑤|
口口⑦① |⑥--⑦|
②口口③ |--⑧-|
4
③口口⑨ |①②-③|
⑩⑥⑫④ |-④⑤⑥|
⑦⑪⑤口 |⑦⑧-⑨|
①②⑧口 |-⑩⑪⑫|
5
④口④口 |①-②-|
口口口口 |③-④-|
口口口①
②④口③

口⑥口⑥
口⑤口口
⑤口⑤⑦ |⑤-⑥-|
口口⑥口 |--⑦-|
6
③口口口 |①②-③|
①⑥口④ |-④⑤⑥|
口口⑤口
①②口口

口口口⑨
⑩口⑫口
⑦⑪口口 |⑦⑧-⑨|
口口⑧口 |-⑩⑪⑫|
7
口⑥⑤⑦ |①-②-|
⑦④⑧口 |③-④⑤|
口口⑦① |⑥--⑦|
②口口③ |--⑧-|
8
③口口⑨ |①②-③|
⑩⑥⑫④ |-④⑤⑥|
⑦⑪⑤口 |⑦⑧-⑨|
①②⑧口 |-⑩⑪⑫|
9
口口口口 |①-②-|
口④口口 |③-④-|
口口④①
②口口③

⑦口⑥口
口口⑦⑤
⑤⑦口⑥ |⑤--⑥|
口⑥⑤口 |--⑦-|
10
⑦①口口 |①-②-|
①口口③ |③-④⑤|
口口②口 |⑥-⑦-|
⑥⑤④⑧ |⑧---|
11
口口①⑦ |①-②-|
③口口① |③-④⑤|
口②口口 |⑥-⑦-|
⑧④⑤⑥ |⑧---|
12
⑦①口口 |①-②-|
①口口③ |③-④⑤|
口口②口 |⑥-⑦-|
⑥⑤④⑧ |⑧---|
13
口口口④ |①--②|
③口⑥口 |③④⑤⑥|
①口②①
口⑤口口

⑦口⑫口
口⑬口⑩
口⑨口⑭ |⑦⑧⑨⑩|
⑪口口⑧ |⑪⑫⑬⑭|
14
⑦①口口 |①-②-|
①口③口 |③-④⑤|
口口②口 |⑥-⑦-|
⑥⑤④⑧ |⑧---|
15
口口①⑦ |①-②-|
③口口① |③-④⑤|
口②口口 |⑥-⑦-|
⑧④⑤⑥ |⑧---|
16
⑦①口口 |①-②-|
①口口③ |③-④⑤|
口口②口 |⑥-⑦-|
⑥⑤④⑧ |⑧---|
17
⑦⑤②⑦ |①-②-|
⑤③④② |③-④-|
③①①④ |⑤-⑥-|
⑧⑥⑥⑧ |⑦-⑧-|
18
口⑥⑦口 |①②-③|
口⑤⑧③ |-④⑤⑥|
①②④⑨ |⑦⑧-⑨|
⑩⑪⑫口 |-⑩⑪⑫|
19
⑦⑥⑤① |①-②-|
②④口③ |③-④⑤|
⑦③②⑦ |⑥--⑦|
⑧⑦口① |--⑧-|
20
口⑥口口 |①②-③|
①⑤口③ |-④⑤⑥|
口②④口
口口①口

口口⑦口
口口⑧口
口口口⑨ |⑦⑧-⑨|
⑩⑪⑫口 |-⑩⑪⑫|
21
口口口① |①-②-|
②③④口 |③-④-|
③②口④
口口口①

口⑥⑦口
口口口⑤
口口⑤口 |⑤-⑥-|
⑧⑦⑥⑧ |⑦-⑧-|
22
口⑥⑦口 |①②-③|
口⑤⑧③ |-④⑤⑥|
①②④⑨ |⑦⑧-⑨|
⑩⑪⑫口 |-⑩⑪⑫|
23
⑦⑥⑤① |①-②-|
②④口③ |③-④⑤|
⑦③②⑦ |⑥--⑦|
⑧⑦口① |--⑧-|
24
口⑥口口 |①②-③|
①⑤口③ |-④⑤⑥|
口②④口
口口①口

口口⑦口
口口⑧口
口口口⑨ |⑦⑧-⑨|
⑩⑪⑫口 |-⑩⑪⑫|
25
口口口① |①-②-|
②③④口 |③-④-|
③②口④
口口口①

口⑥⑦口
口口口⑤
口口⑤口 |⑤-⑥-|
⑧⑦⑥⑧ |⑦-⑧-|
26
口口口③ |①②-③|
④⑤口口 |-④⑤⑥|
①②口口
口⑥口口

口口⑩口
口口⑪⑧
⑨口口⑫ |⑦⑧-⑨|
口口⑦口 |-⑩⑪⑫|
27
①口口③ |①-②-|
⑤②口口 |③-④⑤|
口④②口
③口口①

口⑦⑥口
口口口⑦
口口⑧⑦ |⑥--⑦|
口⑦口口 |--⑧-|
28
口口⑩③ |①②-③|
④⑤⑪⑧ |-④⑤⑥|
⑨②口⑫ |⑦⑧-⑨|
①⑥⑦① |-⑩⑪⑫|
29
①口口③ |①-②-|
口②口口 |③-④-|
口口②口
③④④①

⑦⑤⑦口
口口⑥⑧
⑤口⑧⑥ |⑤-⑥-|
口口口口 |⑦-⑧-|
30
口口⑩③ |①②-③|
④⑤⑪⑧ |-④⑤⑥|
⑨②口⑫ |⑦⑧-⑨|
①⑥⑦① |-⑩⑪⑫|
31
①口口③ |①-②-|
⑤②口口 |③-④⑤|
口④②口
③口口①

口⑦⑥口
口口口⑦
口口⑧⑦ |⑥--⑦|
口⑦口口 |--⑧-|
32
口口⑩③ |①②-③|
④⑤⑪⑧ |-④⑤⑥|
⑨②口⑫ |⑦⑧-⑨|
①⑥⑦① |-⑩⑪⑫|
33
①口口③ |①-②-|
口②口口 |③-④-|
口口②口
③④④①

⑦⑤口口
口口⑥⑧
⑤⑦⑧⑥ |⑤-⑥-|
口口口口 |⑦-⑧-|
34
口口②② |①--②|
①⑧口⑥ |--③-|
⑦口⑤口 |④⑤⑥-|
①④③③ |⑦-⑧-|
35
口口口口 |①-②-|
口口②④ |③-④-|
口①③口
口口口口

⑥⑥口口
口口⑦口
口口口口 |⑤-⑥-|
口口⑤口 |--⑦-|
36
口口②② |①--②|
①⑧口⑥ |--③-|
⑦口⑤口 |④⑤⑥-|
①④③③ |⑦-⑧-|
37
口口口口 |①-②-|
口口②④ |③-④-|
口①③口
口口口口

⑥⑥口口
口口⑧口
口⑦口口 |⑤-⑥-|
口口⑤口 |⑦-⑧-|
38
口口②② |①--②|
①⑧口⑥ |--③-|
⑦口⑤口 |④⑤⑥-|
①④③③ |⑦-⑧-|
39
口口口口 |①-②-|
口口②④ |③-④-|
口①③口
口口口口

⑥⑥口口
口口⑧口
口⑦口口 |⑤-⑥-|
口口⑤口 |⑦-⑧-|
40
口口②② |①--②|
①⑧口⑥ |--③-|
⑦口⑤口 |④⑤⑥-|
①④③③ |⑦-⑧-|
41
口口口口 |①-②-|
口口②④ |③-④-|
口①③口
口口口口

⑥⑥口口
口口⑧口
口⑦口口 |⑤-⑥-|
口口⑤口 |⑦-⑧-|
42
⑦③⑥② |①---|
口①⑩口 |②---|
口⑨口② |③④⑤⑥|
①⑤④⑧ |⑦⑧⑨⑩|
43
⑧④⑦② |①---|
口①⑪口 |②-③-|
口⑩③② |④⑤⑥⑦|
①⑥⑤⑨ |⑧⑨⑩⑪|
44
⑦③⑥② |①---|
口①⑩口 |②---|
口⑨口② |③④⑤⑥|
①⑤④⑧ |⑦⑧⑨⑩|
45
口⑤口④ |①②③④|
⑦①口⑧ |⑤⑥⑦⑧|
③口口②
口口⑥口

⑪口⑩⑯
口口口口
口⑬⑫口 |⑨⑩⑪⑫|
⑨⑮口⑭ |⑬⑭⑮⑯|
46
口②③口 |①--②|
③①口② |--③-|
①口口①
口口①口

口口口口
口口口口
⑥口④⑤ |④--⑤|
④⑤⑥口 |--⑥-|
47
①口口③ |①--②|
②③口① |--③-|
口①②口
口口口①

口口口口
口口口⑤
⑥口口④ |④--⑤|
⑤④⑥口 |--⑥-|
48
①②③② |①---|
③口①口 |②-③-|
⑥①④⑤ |④---|
④⑤⑥① |⑤-⑥-|
49
①口口③ |①---|
②③①口 |②-③-|
口①②口
口口口①

口⑤⑤口
口口⑦口
⑦口口④ |④-⑤-|
④⑥⑥口 |⑥-⑦-|
50
⑦③⑥② |①---|
①口⑩口 |②---|
口⑨①② |③④⑤⑥|
口⑤④⑧ |⑦⑧⑨⑩|
51
⑧④⑦② |①---|
口①⑪口 |②-③-|
口⑩③② |④⑤⑥⑦|
①⑥⑤⑨ |⑧⑨⑩⑪|
52
⑦③⑥② |①---|
口①⑩口 |②---|
口⑨口② |③④⑤⑥|
①⑤④⑧ |⑦⑧⑨⑩|
53
口⑤口④ |①②③④|
⑦①口⑧ |⑤⑥⑦⑧|
③口口②
口口⑥口

⑪口⑩⑯
口口口口
口⑬⑫口 |⑨⑩⑪⑫|
⑨⑮口⑭ |⑬⑭⑮⑯|
54
口②③口 |①--②|
③①口② |--③-|
①口口①
口口①口

口口口口
口口口口
⑥口④⑤ |④--⑤|
④⑤⑥口 |--⑥-|
55
①口口③ |①--②|
②③口① |--③-|
口①②口
口口口①

口口口口
口口口⑤
⑥口口④ |④--⑤|
⑤④⑥口 |--⑥-|
56
①②口② |①---|
口③①③ |②-③-|
口①口口
口口口①

口口口口
⑤口⑥口
口⑥④⑤ |④---|
④口口口 |⑤-⑥-|
57
口①①口 |①---|
口口口口 |----|
口口口口
口①①口

②口⑦③
②⑥口③
②口⑤③ |②-③-|
②④口③ |④⑤⑥⑦|

不確定度: 0

最終更新:2014年05月21日 18:00