think about you
HaKU
BASIC
Level: 3
BPM: 183
Notes: 208
1
口口口口 |----|
口口口口 |----|
口口口口 |----|
口口口口 |----|
2
口口口口 |①---|
口口口口 |----|
②口口② |----|
口①①口 |②---|
3
口口口口 |----|
口口口口 |----|
口口口口 |----|
口口口口 |----|
4
口口口口 |①---|
②口口② |----|
口①①口 |----|
口口口口 |②---|
5
口口口口 |----|
口口口口 |----|
口口口口 |----|
口口口口 |----|
6
②口口② |①---|
口①①口 |----|
口口口口 |----|
口口口口 |②---|
7
口口口口 |----|
口口口口 |----|
口口口口 |----|
口口口口 |----|
8
口①①口 |----|
口口口口 |----|
口口口口 |----|
口口口口 |①---|
9
口口口口 |----|
口口口口 |----|
口口口口 |----|
口口口口 |----|
10
口口口口 |①---|
口口口口 |----|
口口②口 |②---|
口①口口 |----|
11
②口口② |①---|
③①口③ |----|
口口口口 |②---|
口口口口 |③---|
12
口口口口 |①---|
口口口口 |----|
口②口口 |②---|
口口①口 |----|
13
②口口② |①---|
③口①③ |----|
口口口口 |②---|
口口口口 |③---|
14
口口口口 |①---|
口口口口 |----|
口口口② |②---|
①口口口 |----|
15
口②②口 |①---|
①③③口 |----|
口口口口 |②---|
口口口口 |③---|
16
口口口口 |①---|
口口口口 |----|
②口口口 |②---|
口口口① |----|
17
口②②口 |①---|
口③③① |----|
口口口口 |②---|
口口口口 |③---|
18
口口口口 |①---|
口口口口 |----|
口口①口 |----|
口口口口 |----|
19
口口口口 |①---|
口口口口 |----|
口①口口 |----|
口口口口 |----|
20
口口口口 |①---|
口口①口 |----|
口口口口 |----|
口口口口 |----|
21
口②②口 |①---|
口①口口 |----|
口口口口 |②---|
口口口口 |----|
22
口口口口 |①---|
口口口口 |----|
口口②口 |②---|
口①口口 |----|
23
②口口② |①---|
③①口③ |----|
口口口口 |②---|
口口口口 |③---|
24
口口口口 |①---|
口口口口 |----|
口②口口 |②---|
口口①口 |----|
25
②口口② |①---|
③口①③ |----|
口口口口 |②---|
口口口口 |③---|
26
口口口口 |①---|
口口口口 |----|
口①①口 |----|
口口口口 |----|
27
口口口口 |①---|
口口①口 |----|
口口口口 |----|
口口口口 |----|
28
口①①口 |①---|
口口口口 |----|
口口口口 |----|
口口口口 |----|
29
口口口口 |①---|
口①口口 |----|
口口口口 |----|
口口口口 |----|
30
口口口口 |①---|
口口口口 |----|
口口口② |②---|
①口口口 |----|
31
口②②口 |①---|
①③③口 |----|
口口口口 |②---|
口口口口 |③---|
32
口口口口 |①---|
口口口口 |----|
②口口口 |②---|
口口口① |----|
33
口②②口 |①---|
口③③① |----|
口口口口 |②---|
口口口口 |③---|
34
口口口口 |①---|
口口口口 |----|
口②①口 |②---|
口口口口 |----|
35
口口口口 |①---|
口②①口 |----|
口口口口 |②---|
口口口口 |----|
36
口口口口 |①---|
口口口口 |----|
②口口① |②---|
口口口口 |----|
37
口口口口 |①---|
②口口① |----|
口口口口 |②---|
口口口口 |----|
38
口口口口 |①---|
口口口口 |----|
口口②口 |②---|
口①口口 |----|
39
②口口② |①---|
③①口③ |----|
口口口口 |②---|
口口口口 |③---|
40
口口口口 |①---|
口口口口 |----|
口②口口 |②---|
口口①口 |----|
41
②口口② |①---|
③口①③ |----|
口口口口 |②---|
口口口口 |③---|
42
口口口口 |①---|
口口②口 |----|
口口①口 |②---|
口口口口 |----|
43
口口口口 |①---|
口②口口 |----|
口①口口 |②---|
口口口口 |----|
44
④口口口 |①---|
口口口③ |②---|
②口口口 |③---|
口口口① |④---|
45
口口口① |①---|
②口口口 |②---|
口口口③ |③---|
④口口口 |④---|
46
口口口口 |①---|
口①①口 |----|
口①①口 |----|
口口口口 |----|
47
口①口口 |①---|
口口口口 |----|
口口口口 |----|
口口口口 |----|
48
口口口口 |①---|
口口①口 |----|
口口口口 |----|
口口口口 |----|
49
②口口② |①---|
③口口③ |----|
口①口口 |②---|
口口口口 |③---|
50
口口口口 |①---|
口口②口 |----|
口口①口 |②---|
口口口口 |----|
51
口口口口 |①---|
口②口口 |----|
口①口口 |②---|
口口口口 |----|
52
④口口口 |①---|
口口口③ |②---|
②口口口 |③---|
口口口① |④---|
53
口口口① |①---|
②口口口 |②---|
口口口③ |③---|
④口口口 |④---|
54
口口口口 |①---|
口①①口 |----|
口①①口 |----|
口口口口 |----|
55
口①口口 |①---|
口口口口 |----|
口口口口 |----|
口口口口 |----|
56
口口口口 |①---|
口①①口 |----|
口①①口 |----|
口口口口 |----|
57
口口口口 |----|
口口口口 |----|
口口口口 |----|
口口口口 |----|
58
①①①① |①---|
口口口口 |----|
口口口口 |----|
口口口口 |----|
59
口口口口 |①---|
①口口口 |----|
口口口口 |----|
口口口口 |----|
60
口口口口 |①---|
口①口口 |----|
口口口口 |----|
口口口口 |----|
61
口口口口 |①---|
口口①口 |----|
口口口口 |----|
口口口口 |----|
62
口口口口 |①---|
口口口① |----|
口口口口 |----|
口口口口 |----|
63
口口口口 |①---|
口口口口 |----|
口口口口 |----|
口①口口 |----|
64
口口口口 |①---|
口口口口 |----|
口①口口 |----|
口口口口 |----|
65
口口口口 |①---|
口①口口 |----|
口口口口 |----|
口口口口 |----|
66
①①①① |①---|
口口口口 |----|
口口口口 |----|
口口口口 |----|
67
口口口口 |①---|
口口口① |----|
口口口口 |----|
口口口口 |----|
68
口口口口 |①---|
口口①口 |----|
口口口口 |----|
口口口口 |----|
69
口口口口 |①---|
口①口口 |----|
口口口口 |----|
口口口口 |----|
70
口口口口 |①---|
①口口口 |----|
口口口口 |----|
口口口口 |----|
71
口口口口 |①---|
口口口口 |----|
口口口口 |----|
口口①口 |----|
72
口口口口 |①---|
口口口口 |----|
口口①口 |----|
口口口口 |----|
73
口口口口 |①---|
口口①口 |----|
口口口口 |----|
口口口口 |----|
74
口①①口 |①---|
口口口口 |----|
口口口口 |----|
口口口口 |----|
75
口口口口 |①---|
口①①口 |----|
口口口口 |----|
口口口口 |----|
76
口口口口 |①---|
口口口口 |----|
口口②口 |②---|
口①口口 |----|
77
②口口② |①---|
③①口③ |----|
口口口口 |②---|
口口口口 |③---|
78
口口口口 |①---|
口口口口 |----|
口②口口 |②---|
口口①口 |----|
79
②口口② |①---|
③口①③ |----|
口口口口 |②---|
口口口口 |③---|
80
口口口口 |①---|
口口口口 |----|
口口口② |②---|
①口口口 |----|
81
口②②口 |①---|
①③③口 |----|
口口口口 |②---|
口口口口 |③---|
82
口口口口 |①---|
口口口口 |----|
②口口口 |②---|
口口口① |----|
83
口②②口 |①---|
口③③① |----|
口口口口 |②---|
口口口口 |③---|
84
口口口口 |①---|
口口口口 |----|
口①口口 |----|
口口口口 |----|
85
口②②口 |①---|
口③③口 |----|
口口①口 |②---|
口口口口 |③---|
不確定度: 0