走れメロンパン
日向美ビタースイーツ♪

EXTREME

Level: 8
BPM: 170
Notes: 549

1
口口口口 |----|
口③口口 |----|
口口②口 |--①-|
口①口口 |②-③-|
2
口口口口 |----|
口口③口 |----|
口②口口 |--①-|
口口①口 |②-③-|
3
口⑤④口 |--①-|
口③⑥口 |②-③-|
口口②口 |--④-|
口①口口 |⑤-⑥-|
4
口口口口 |①---|
口④⑤口 |②---|
③②②⑥ |③-④-|
口①①口 |⑤-⑥-|
5
口④口口 |--①-|
口口③口 |----|
口②口口 |--②-|
口①①口 |③-④-|
6
口口口口 |----|
口①口口 |----|
口口②口 |--①-|
口③口口 |②-③-|
7
口④⑤口 |--①-|
口⑥①口 |②-③-|
口②口口 |--④-|
口口③口 |⑤-⑥-|
8
口口口口 |①---|
口口口口 |②---|
②①①②
口口口口

口口口口
口⑥⑥口
口⑤口口 |③-④-|
口③④口 |⑤-⑥-|
9
①③③① |--①-|
②口口② |②-③-|
口口口口 |----|
口口口口 |----|
10
口口口口 |①---|
口口口口 |----|
口①①口 |----|
口口口口 |----|
11
口口口口 |----|
③口口口 |----|
②口口口 |--①-|
①口口口 |②-③-|
12
口口口口 |--①-|
口⑥③口 |②-③-|
口⑤②口 |--④-|
口④①口 |⑤-⑥-|
13
口口①口 |①---|
口口⑥⑦ |②-③-|
④⑤③② |④-⑤-|
口口口口 |⑥-⑦-|
14
口①①口 |①---|
④口口口 |②---|
③口口口 |③---|
口②②口 |④---|
15
口口口口 |①---|
口⑤口② |--②-|
口④口口 |--③-|
口③口① |④-⑤-|
16
③口④④ |--①-|
③⑤④④ |②-③-|
③口④④ |--④-|
①口口② |--⑤-|
17
口⑧⑧口 |①-②-|
⑦口口⑦ |③-④-|
⑥③④⑥ |⑤-⑥-|
②⑤⑤① |⑦-⑧-|
18
口口口口 |----|
口口口口 |①---|
②口口③ |②---|
①口口口 |③---|
19
口口②口 |①---|
口口口口 |--②-|
口口①口
口口口口

口口口口
③口口口
口④⑤口 |--③-|
口口口口 |④-⑤-|
20
口口②② |①---|
口口口口 |②---|
口口口口 |----|
③口口① |③---|
21
口口口口 |----|
口④③口 |①---|
①①口② |--②-|
口口口口 |③-④-|
22
①口口③ |①---|
口口口口 |②---|
口口口口 |----|
②②口口 |③---|
23
口口口口 |----|
口口①① |①---|
③口口④ |--②-|
口口②口 |③-④-|
24
⑤口口口 |①-②-|
口①④⑥ |③-④-|
口⑦②口 |⑤-⑥-|
口③口⑧ |⑦-⑧-|
25
口口②口 |①-②-|
口③口口 |③-④-|
口口口口
①口④口

口⑦⑦口
口口口口
口口⑥口 |⑤-⑥-|
口⑤口口 |--⑦-|
26
口口口口 |----|
口口口口 |----|
口口口口 |①---|
口①口口 |----|
27
口口口口 |①---|
口②②口 |----|
口口①口 |②---|
口口口口 |----|
28
①②口⑤ |①-②-|
口口⑥口 |③-④-|
口⑦③④ |⑤-⑥-|
口口口⑧ |⑦-⑧-|
29
⑦口⑥⑥ |①-②-|
②口口① |③-④-|
口⑤口口 |⑤-⑥-|
③口④口 |--⑦-|
30
口⑦⑧口 |①-②-|
口口⑥② |③-④-|
①口口口 |⑤-⑥-|
口④⑤③ |⑦-⑧-|
31
①口口口 |①②③-|
②口口口 |----|
③⑥口口 |--④-|
口口⑤④ |⑤-⑥-|
32
口⑤③① |①-②-|
⑤口④② |③-④-|
口口口口 |⑤---|
⑥⑦口口 |⑥-⑦-|
33
口口②口 |①-②-|
⑧③④① |③-④-|
口⑦⑤口 |⑤-⑥-|
⑥口口口 |⑦-⑧-|
34
口②①口 |①-②-|
口口口③ |③-④-|
⑦⑦④口 |⑤-⑥-|
口⑥⑥⑤ |--⑦-|
35
②②⑤⑦ |①-②-|
口④①① |③-④-|
口口③口 |⑤-⑥-|
口口⑥⑧ |⑦-⑧-|
36
口口③口 |----|
口②口口 |----|
①口口口 |--①-|
口口口口 |②-③-|
37
口③⑥口 |--①-|
口⑤②口 |②-③-|
④口口① |--④-|
口口口口 |⑤-⑥-|
38
口③口口 |--①-|
⑥⑥②口 |②-③-|
⑤⑤⑤① |--④-|
④④④④ |⑤-⑥-|
39
①口⑥② |①---|
口口⑤④ |②---|
口口口③ |③-④-|
口口口口 |⑤-⑥-|
40
口①④口 |--①-|
口③口口 |----|
②口口口 |--②-|
口口口口 |③-④-|
41
口③⑥口 |--①-|
口⑤②口 |②-③-|
④口口① |--④-|
口口口口 |⑤-⑥-|
42
④③口④ |--①-|
⑥口②⑥ |②-③-|
口口口① |--④-|
口⑤⑤口 |⑤-⑥-|
43
口口口口 |①---|
口口口口 |②---|
口①①口
②口口②

口口⑤口
④⑥口④
③口⑥③ |③-④-|
口⑤口口 |⑤-⑥-|
44
③③口① |--①-|
口口②口 |②-③-|
口②口口 |----|
①口③③ |----|
45
口③③① |①---|
口②②① |②---|
①②②口 |③---|
①③③④ |④---|
46
①③③② |①---|
口③口③ |②-③-|
③③口④ |----|
③③口口 |--④-|
47
口③③② |--①-|
①口口口 |②-③-|
口④口⑥ |--④-|
口口⑤口 |⑤-⑥-|
48
口口口口 |--①-|
口①②③ |②-③-|
口口口口 |----|
口口口口 |----|
49
⑦⑦⑦口 |①-②-|
⑤⑤⑥③ |③-④-|
③③⑧② |⑤-⑥-|
①①④① |⑦-⑧-|
50
⑦⑦⑦口 |①-②-|
⑤⑤⑥③ |③-④-|
③③⑧② |⑤-⑥-|
①①④① |⑦-⑧-|
51
④④口口 |①---|
③③口口 |②---|
②②口口 |③---|
①①口口 |④---|
52
口口⑧口 |①-②-|
口⑦③⑧ |③-④-|
⑥①⑦口 |⑤-⑥-|
④⑥②⑤ |⑦-⑧-|
53
口③⑥口 |--①-|
③⑤②⑥ |②-③-|
④②⑤① |--④-|
口④①口 |⑤-⑥-|
54
口③口口 |--①-|
③口②口 |②-③-|
口②口①
口口①口

④口口④
口口口口
⑥口口⑥ |--④-|
⑤口口⑤ |⑤-⑥-|
55
口口口口 |①---|
口①②口 |②---|
口②口口
口口①口

⑥⑥⑥⑥
口⑤口⑤
④口④口 |③-④-|
口③口③ |⑤-⑥-|
56
口口④口 |--①-|
口③口④ |----|
②口③口 |--②-|
①②①口 |③-④-|
57
口③⑥口 |--①-|
③⑤②⑥ |②-③-|
④②⑤① |--④-|
口④①口 |⑤-⑥-|
58
④③口④ |--①-|
③⑥②口 |②-③-|
口②⑥① |--④-|
⑤口①⑤ |⑤-⑥-|
59
口口口口 |①---|
口口①口 |②---|
②①口②
口口口口

④口③口
⑤口⑥⑤
口⑥口口 |③-④-|
口③口④ |⑤-⑥-|
60
③③③③ |--①-|
口①口口 |②-③-|
口口①口 |----|
口②②口 |----|
61
口口口口 |①---|
①③③① |②---|
②④④② |③---|
①③③① |④---|
62
④①②④ |①---|
口③③口 |②-③-|
③口口③ |----|
口③③口 |--④-|
63
口③③口 |--①-|
口②口口 |②-③-|
口④①⑥ |--④-|
口口⑤口 |⑤-⑥-|
64
口口口口 |--①-|
口①②③ |②-③-|
口口口口 |----|
口口口口 |----|
65
⑦⑦⑦① |①-②-|
⑤⑤⑥② |③-④-|
③③口③ |⑤-⑥-|
①①④口 |⑦---|
66
⑦⑦⑦① |①-②-|
⑤⑤⑧② |③-④-|
③③⑥③ |⑤-⑥-|
①①口④ |⑦-⑧-|
67
③③③③ |①---|
④④④④ |②---|
②②口口 |③---|
①①口口 |④---|
68
口口口口 |①---|
口口口口 |②---|
①①①①
②②②②

口口口口
③③③③
④④⑤⑤ |③---|
口口口口 |④-⑤-|
69
口口口口 |①---|
口口口口 |----|
口口口口 |----|
口①①口 |----|
70
口口口口 |①---|
①口口① |----|
口口口口 |----|
口口口口 |----|
71
口口口口 |①---|
口①①口 |----|
口①①口 |----|
口口口口 |----|

不確定度: 0

最終更新:2014年12月11日 23:05