LOVE LOVE SHOW
THE YELLOW MONKEY

ADVANCED

Level: 5
BPM: 150
Notes: 368

全程BPM在150附近飄忽不定
1
口口口口 |----|
口口口口 |----|
口口口口 |----|
口口口口 |----|
2
①①口口 |①---|
口口③③ |②---|
口口口② |③---|
④口口口 |④---|
3
口口③③ |①---|
①①口口 |②---|
④口口口 |③---|
口口口② |④---|
4
①①口口 |①---|
口口③③ |②---|
口口口② |③---|
④口口口 |④---|
5
口口③③ |①---|
①①口口 |②---|
④口口口 |③---|
口口口② |④---|
6
口口口④ |①---|
②口口口 |②---|
③③口口 |③---|
口口①① |④---|
7
②口口口 |①---|
口口口④ |②---|
口口①① |③---|
③③口口 |④---|
8
口口口④ |①---|
②口口口 |②---|
③③口口 |③---|
口口①① |④---|
9
②口口口 |①---|
口④口口 |②-③-|
③口①① |④-⑤-|
口口⑤口 |----|
10
口口口口 |①---|
③⑥口口 |②-③-|
④口口① |④---|
②⑤口口 |⑤-⑥-|
11
口口口口 |①---|
口口③⑥ |②-③-|
口①④口 |④---|
口口②⑤ |⑤-⑥-|
12
③⑥口口 |①---|
④口口口 |②-③-|
②⑤口① |④---|
口口口口 |⑤-⑥-|
13
口口⑤口 |①-②-|
口①⑥① |③-④-|
口⑦③口 |⑤-⑥-|
口④⑧② |⑦-⑧-|
14
口②⑤口 |①---|
①③④① |②-③-|
口口口口 |----|
口口口口 |④-⑤-|
15
口口口口 |----|
口②口口 |①---|
①②③口 |②---|
①口③口 |③---|
16
口④③口 |①---|
口⑤②① |②-③-|
口口口① |----|
口口口口 |④-⑤-|
17
口口口口 |----|
口口②口 |①---|
口③②① |②---|
口③口① |③---|
18
口③④口 |①---|
①②⑤口 |②-③-|
①口口口 |----|
口口口口 |④-⑤-|
19
口口口口 |----|
③③口口 |①---|
口②②口 |②---|
①①口口 |③---|
20
口①①口 |①---|
口口②③ |②-③-|
口口⑤④ |----|
口口口口 |④-⑤-|
21
口口⑤⑤ |----|
①②口口 |①-②-|
口口④④ |--③-|
口口③③ |④-⑤-|
22
口②⑤口 |①---|
①③④① |②-③-|
口口口口 |----|
口口口口 |④-⑤-|
23
口口口口 |----|
口②口口 |①---|
①②③口 |②---|
①口③口 |③---|
24
口④③口 |①---|
口⑤②① |②-③-|
口口口① |----|
口口口口 |④-⑤-|
25
口口口口 |----|
口口②口 |①---|
口③②① |②---|
口③口① |③---|
26
口③④口 |①---|
①②⑤口 |②-③-|
①口口口 |----|
口口口口 |④-⑤-|
27
口口口口 |----|
③③口口 |①---|
口②②口 |②---|
①①口口 |③---|
28
口①①口 |①---|
口口②③ |②-③-|
口口⑤④ |----|
口口口口 |④-⑤-|
29
口口口口 |----|
①②口口 |①-②-|
口⑤④③ |--③-|
口口口口 |④-⑤-|
30
①①①① |①---|
②③③② |----|
口口口口 |②-③-|
④口口口 |④---|
31
口口口口 |①---|
口口口口 |----|
②口口③ |②---|
口②③① |③---|
32
口①①口 |①---|
①口口① |--②-|
③②②口 |----|
口口口口 |③---|
33
口口②② |①---|
口口口口 |②---|
口口口①
口口口口

口口口口
口口③③
口口④④ |③---|
口口口口 |④---|
34
口口口口 |①---|
口③口口 |--②-|
口口口口 |----|
②口①① |③---|
35
①口口口 |①---|
口口④④ |②---|
口口③③ |③---|
口口②② |④---|
36
口口①① |①---|
口③口口 |--②-|
口口口口 |----|
②口口口 |③---|
37
①口口② |①---|
口口口口 |②---|
口口口口 |③---|
④口口③ |④---|
38
①①①① |①---|
②口口② |--②-|
口口口口 |----|
③口口口 |③---|
39
口口口口 |①---|
口口口口 |----|
②口口③ |②---|
口②③① |③---|
40
口①②口 |①---|
①口口② |--②-|
口口口口 |----|
③口口口 |③---|
41
②②口口 |①---|
③③口口 |②---|
④④口口 |③---|
口口口① |④---|
42
口口口口 |①---|
口口③口 |--②-|
口口口口 |----|
①①口② |③---|
43
口口口① |①---|
④④口口 |②---|
③③口口 |③---|
②②口口 |④---|
44
①①⑤口 |①---|
口口口④ |②---|
口口③口 |③-④-|
口口口② |⑤---|
45
①口口② |①---|
口口⑤口 |②---|
口④口口 |③-④-|
③口口口 |⑤---|
46
③口口① |①---|
②④口① |--②-|
口口口口 |③---|
口口口口 |--④-|
47
⑥⑦⑧口 |①-②-|
⑤口①口 |③-④-|
④③②口 |⑤-⑥-|
口口口口 |⑦-⑧-|
48
③口口① |①---|
②口口① |--②-|
口口口口 |③---|
口口口口 |----|
49
口⑤⑥口 |----|
口④①口 |①-②-|
口③②口 |③-④-|
口口口口 |⑤-⑥-|
50
②口口① |①---|
②口口① |----|
口口口口 |②---|
口口口口 |----|
51
口口口口 |①---|
②口口① |②---|
③②①④ |③---|
②口口① |④---|
52
①口口① |①---|
口口口口 |----|
口口口口 |----|
口口口口 |----|
53
口口④口 |--①-|
口口⑤口 |②-③-|
口⑥②口 |④-⑤-|
口③⑦① |⑥-⑦-|
54
③口口① |①---|
②④口① |--②-|
口口口口 |③---|
口口口口 |--④-|
55
⑥⑦⑧口 |①-②-|
⑤口①口 |③-④-|
④③②口 |⑤-⑥-|
口口口口 |⑦-⑧-|
56
③口口① |①---|
②④口① |--②-|
口口口口 |③---|
口口口口 |--④-|
57
⑥⑦⑧口 |①-②-|
⑤口①口 |③-④-|
④③②口 |⑤-⑥-|
口口口口 |⑦-⑧-|
58
③口口① |----|
②④④① |①---|
口口口口 |②-③-|
口口口口 |--④-|
59
口口口口 |--①-|
⑥口口⑥ |②-③-|
⑤②①⑤ |--④-|
④③口④ |⑤-⑥-|
60
①口口① |①---|
口口口口 |----|
口口口口 |----|
口口口口 |----|
61
口口②② |----|
口口②口 |----|
①①口口 |①---|
口①口口 |②---|
62
口口口口 |①-②-|
口①口口 |--③-|
口口②口 |----|
口③口口 |----|
63
口口④口 |--①-|
口口⑤口 |②-③-|
口⑥②口 |④-⑤-|
口③⑦① |⑥-⑦-|

不確定度: 0

最終更新:2014年03月24日 22:20