electro peaceful
Mr.T

ADVANCED

Level: 7
BPM: 160
Notes: 480

1
口口口口 |----|
口口口口 |----|
口口口口 |----|
口口口口 |----|
2
口③口③ |①---|
④口④口 |②---|
①口口① |③-④-|
口②②口 |----|
3
①③①③ |--①-|
④②④② |②---|
口口口口 |③-④-|
⑤⑤⑤⑤ |--⑤-|
4
①③①③ |--①-|
④②④② |②---|
口口口口 |③-④-|
口口口口 |----|
5
①口①口 |--①-|
口②口② |②---|
口③③口 |③--④|
④口口④ |----|
6
口③口③ |①---|
④口④口 |②---|
①口口① |③-④-|
口②②口 |----|
7
①③①③ |--①-|
④②④② |②---|
口口口口 |③-④-|
⑤⑤⑤⑤ |--⑤-|
8
①③①③ |--①-|
④②④② |②---|
口口口口 |③-④-|
口口口口 |----|
9
①口①口 |--①-|
口②口② |②---|
③口口③ |③--④|
口④④口 |----|
10
口④②口 |①---|
④口口② |②---|
口③①口 |③---|
口口口口 |④---|
11
口口口口 |①---|
口③①口 |②---|
④口口② |③---|
口④②口 |④---|
12
口④②口 |①---|
④口口② |②---|
口③①口 |③---|
口口口口 |④---|
13
口口口口 |①---|
口③①口 |②---|
④口口② |③---|
口④②口 |④---|
14
口口口口 |①-②-|
①④口① |③-④-|
口口口口
②口口③

口⑥口⑦
口口⑤⑦
口口口口 |⑤-⑥-|
口⑧口口 |⑦-⑧-|
15
口⑥口⑦ |①-②-|
口④⑤⑦ |③-④-|
口②口③ |⑤-⑥-|
口⑧①③ |⑦-⑧-|
16
口⑥口⑦ |①-②-|
口④⑤⑦ |③-④-|
口②口③ |⑤-⑥-|
口口①③ |⑦---|
17
⑥⑤口口 |①---|
④③②口 |②-③-|
口⑤口口 |④--⑤|
①①①① |--⑥-|
18
口口⑤② |①--②|
口口口口 |--③-|
①口③⑥ |④--⑤|
口④口口 |--⑥-|
19
口口⑤② |①--②|
口口口口 |--③-|
口口③⑥ |④--⑤|
口④①口 |--⑥-|
20
口口口口 |①--②|
口口④③ |--③-|
口①②口 |④---|
口口④③ |----|
21
口口口口 |----|
口口口口 |----|
口口口① |----|
口口口口 |--①-|
22
口口⑤② |①--②|
口口口口 |--③-|
口口③⑥ |④--⑤|
口口④① |--⑥-|
23
口口⑤② |①--②|
口口口口 |--③-|
口⑥③口 |④--⑤|
口口④① |--⑥-|
24
口口口口 |①--②|
口口④④ |--③-|
口口②① |④---|
口口③③ |----|
25
口口口口 |----|
口口口口 |----|
口口口① |----|
口口口口 |--①-|
26
口口⑤② |①--②|
口口口口 |--③-|
口口③⑥ |④--⑤|
口④①口 |--⑥-|
27
口口⑤② |①--②|
口口口口 |--③-|
口口③⑥ |④--⑤|
口④①口 |--⑥-|
28
口口口口 |①--②|
口口④③ |--③-|
口①②口 |④---|
口口④③ |----|
29
口口口口 |----|
口口口口 |----|
口口口② |----|
口口口① |①-②-|
30
口口④口 |①--②|
口口③① |--③-|
口⑤口⑥ |④--⑤|
口口②口 |--⑥-|
31
口①⑤② |①--②|
口口口口 |--③-|
口⑥⑤⑥ |④--⑤|
口③口④ |--⑥-|
32
口①口① |①---|
口口口口 |----|
口口口口 |----|
口口口口 |----|
33
口口口口 |----|
口口口口 |----|
口口口② |----|
口口口① |--①②|
34
口口口口 |①--②|
②④③① |--③-|
⑤口⑥口 |④--⑤|
口口口口 |--⑥-|
35
口口口口 |①--②|
口口口口 |--③-|
口①口⑥ |④---|
②④③⑤ |--⑤⑥|
36
口口口口 |①--②|
⑤口⑥① |--③-|
②④③口 |④--⑤|
口口口口 |--⑥-|
37
②④③① |①---|
口①口口 |②---|
①③④② |③---|
口口口口 |④---|
38
口口口口 |①---|
①④口① |--②③|
口③口口 |④---|
口②口口 |----|
39
口口口口 |----|
口口口口 |--①-|
④口②① |②--③|
口③③口 |--④-|
40
口口口口 |①---|
口②②口 |--②-|
口①口口 |③---|
③口口③ |----|
41
④④④④ |①--②|
口③③⑤ |--③-|
②②①① |④---|
口⑥⑦口 |⑤-⑥⑦|
42
⑤口口口 |①--②|
④⑥口口 |--③④|
③⑧②口 |⑤--⑥|
⑦口口① |--⑦⑧|
43
口③口口 |①--②|
口口①口 |--③-|
口口口②
口口口口

口口口④
口口⑤口
口⑥口口 |④---|
口口口口 |--⑤⑥|
44
口④口口 |①--②|
③②口口 |--③-|
口口⑤口 |④--⑤|
①口⑥口 |--⑥-|
45
口口④② |①--②|
口口口③ |--③-|
口口口① |④---|
口⑤⑥口 |--⑤⑥|
46
⑤口口口 |①--②|
④⑥口口 |--③④|
③口②口 |⑤--⑥|
⑦口口① |--⑦-|
47
口③口口 |①--②|
口口口口 |--③-|
口①口②
口口口口

口口口④
口口⑤口
口⑥口口 |④---|
口口口口 |--⑤⑥|
48
口④口口 |①--②|
③②口口 |--③-|
口口⑤口 |④--⑤|
①口⑥口 |--⑥-|
49
口口④② |①--②|
口口口③ |--③-|
口口口① |④---|
口⑤⑥口 |--⑤⑥|
50
⑤口口口 |①--②|
④⑥口口 |--③④|
③⑧②口 |⑤--⑥|
⑦口口① |--⑦⑧|
51
口③口口 |①--②|
口口①口 |--③-|
口口口②
口口口口

口口口④
口口⑤口
口⑥口口 |④---|
口口口口 |--⑤⑥|
52
口④口口 |①--②|
③②口口 |--③-|
口口⑤口 |④--⑤|
①口⑥口 |--⑥-|
53
口口④② |①--②|
口口口③ |--③-|
口⑥口① |④---|
⑤口口口 |--⑤⑥|
54
⑤口口口 |①--②|
⑥口①口 |--③-|
口口口④ |④--⑤|
口口③② |--⑥-|
55
口①④② |①--②|
口口⑤③ |--③-|
口⑤口口 |④---|
口口口口 |⑤---|
56
③④口① |①--②|
④②口口 |--③-|
口口⑤口 |④--⑤|
①口口⑥ |--⑥-|
57
口口口口 |①---|
口口口口 |----|
口口口① |----|
口口①口 |----|
58
⑩⑧⑦⑨ |-①②③|
⑫⑥⑤⑪ |④⑤⑥⑦|
口④③口 |⑧⑨⑩⑪|
口②①口 |⑫---|
59
口口口口 |①---|
口口口口 |----|
口口口口 |----|
口口①① |----|
60
口口口口 |①-②-|
口口口口 |----|
口口②② |----|
口口①① |----|
61
口口口口 |①-②-|
口③③③ |③---|
口②②② |----|
口①①① |----|
62
②口口① |①---|
口口口口 |----|
口口口口 |②---|
①口口② |----|
63
口口口口 |①---|
口口口口 |----|
口①①口 |----|
口口口口 |----|
64
口口口口 |①-②-|
口②②口 |----|
口①①口 |----|
口口口口 |----|
65
③③③口 |①-②-|
②②②口 |③---|
①①①口 |----|
口口口④ |④---|
66
③口口① |①---|
口②口口 |----|
口口②口 |②---|
①口口口 |--③-|
67
口口⑤② |①--②|
口口口口 |--③-|
①口③⑥ |④--⑤|
口④口口 |--⑥-|
68
口口⑤② |①--②|
口口口口 |--③-|
口口③⑥ |④--⑤|
口④①口 |--⑥-|
69
口口口口 |①--②|
口口④③ |--③-|
口①②口 |④---|
口口④③ |----|
70
口口口口 |----|
口口口① |----|
口口口② |----|
口口口口 |①-②-|
71
口口⑤② |①--②|
口口口口 |--③-|
口口③⑥ |④--⑤|
口口④① |--⑥-|
72
口口⑤② |①--②|
口口口口 |--③-|
口⑥③口 |④--⑤|
口口④① |--⑥-|
73
口口口口 |①---|
口口口① |----|
口口口口 |----|
口口口① |----|
74
口口口口 |----|
口口口口 |----|
口口口口 |----|
口口口口 |----|
75
口②②口 |①-②-|
口口口口 |----|
口口口口 |----|
③①①③ |③---|
76
④⑤口口 |①---|
口②③② |②---|
④⑤①口 |③---|
口口①口 |④-⑤-|
77
口口①口 |①---|
口口口口 |----|
口口①口 |----|
口口口口 |----|
78
口口口口 |----|
口口口口 |----|
口口口口 |----|
口口口口 |----|
79
口①①口 |①---|
口②②口 |②---|
口③③口 |③---|
口④④口 |④---|
80
①①①① |①---|
口口口口 |----|
口口口口 |----|
口口口口 |----|


不确定度: 0

最終更新:2012年11月08日 18:19