Devil Fish Dumpling
96

BASIC

Level: 5
BPM: 166
Notes: 361

1
口口口口 |----|
口口口口 |----|
口口口口 |----|
口口口口 |----|
2
口口口口 |①---|
②①①③ |②---|
口①①口 |----|
口口口口 |③---|
3
口口口口 |①---|
口口口口 |----②-|
①口口② |----|
口口口口 |----|
4
口口口口 |①---|
②①①③ |②---|
口①①口 |----|
口口口口 |③---|
5
口口口口 |①---|
口口口口 |②---|
口口口口 |③---|
①②③④ |④---|
6
口口口口 |①---|
②①①③ |②---|
口①①口 |----|
口口口口 |③---|
7
口口口口 |①---|
口口口口 |----②-|
①口口② |----|
口口口口 |----|
8
口口口口 |①---|
②①①③ |②---|
口①①口 |----|
口口口口 |③---|
9
口口口口 |①---|
口口口口 |②---|
口口口口 |③---|
①②③④ |④---|
10
口口口口 |①---|
①口口② |----|
①口口② |②---|
口口口口 |----|
11
口④④口 |①---|
口③③口 |②---|
口②②口 |③---|
口①①口 |④---|
12
①口口① |①---|
口口口口 |----|
口口口口 |②---|
②口口② |----|
13
口口口口 |①---|
①②③④ |②---|
①②③④ |③---|
口口口口 |④---|
14
口口口口 |①---|
①口口② |----|
①口口② |②---|
口口口口 |----|
15
口④④口 |①---|
口③③口 |②---|
口②②口 |③---|
口①①口 |④---|
16
①口口① |①---|
口口口口 |----|
口口口口 |②---|
②口口② |----|
17
口口口口 |①---|
①②③④ |②---|
①②③④ |③---|
口口口口 |④---|
18
口口口口 |①---|
①口口② |----|
①口口② |②---|
口口口口 |----|
19
口①①口 |①---|
口②②口 |②---|
口③③口 |③---|
口④④口 |④---|
20
①口口① |①---|
口口口口 |----|
口口口口 |②---|
②口口② |----|
21
口口口口 |①---|
①②④④ |②---|
①②③③ |③---④-|
口口口口 |----|
22
口口口口 |①---|
①口口② |----|
①口口② |②---|
口口口口 |----|
23
口④④口 |①---|
口③③口 |②---|
口②②口 |③---|
口①①口 |④---|
24
①口口① |①---|
口口口口 |----|
口口口口 |②---|
②口口② |----|
25
口口口口 |①---|
①②④④ |②---|
①②③③ |③---④-|
口口口口 |----|
26
口口口口 |①---|
①口口② |----|
①口口② |②---|
口口口口 |----|
27
口④④口 |①---|
口③③口 |②---|
口②②口 |③---|
口①①口 |④---|
28
①口口① |①---|
口口口口 |----|
口口口口 |②---|
②口口② |----|
29
口口口口 |①---|
①②③④ |②---|
①②③④ |③---|
口口口口 |④---|
30
口口口口 |①---|
①口口② |----|
①口口② |②---|
口口口口 |----|
31
口④④口 |①---|
口③③口 |②---|
口②②口 |③---|
口①①口 |④---|
32
①口口① |①---|
口口口口 |----|
口口口口 |②---|
②口口② |----|
33
口口口口 |①---|
④③②① |②---|
④③②① |③---|
口口口口 |④---|
34
口口口口 |①---|
口口口① |----|
口口口口 |----|
口口口① |----|
35
口口口口 |①---|
①口口口 |----|
口口口口 |----|
①口口口 |----|
36
口口口口 |①---|
口口①口 |----|
口口口口 |----|
口口①口 |----|
37
口口口口 |①---|
口①口口 |----|
口口口口 |----|
口①口口 |----|
38
口口②① |①---|
口口口口 |----|
口口②① |②---|
口口口口 |----|
39
①②口口 |①---|
口口口口 |----|
①②口口 |②---|
口口口口 |----|
40
口口口口 |①---|
口口②① |----|
口口口口 |②---|
口口②① |----|
41
口口口口 |①---|
①②口口 |----|
口口口口 |②---|
①②口口 |----|
42
口口②① |①---|
口口口口 |----|
口口②① |②---|
口口口口 |----|
43
①②口口 |①---|
口口口口 |----|
①②口口 |②---|
口口口口 |----|
44
口口口口 |①---|
口口②① |----|
口口口口 |②---|
口口②① |----|
45
口口口口 |①---|
①②口口 |----|
口口口口 |②---|
①②口口 |----|
46
口口口口 |①---|
②②②② |----|
①①①① |②---|
口口口口 |----|
47
口口口口 |①---|
②②②② |----|
①①①① |②---|
口口口口 |----|
48
①①①① |①---|
②②②② |----|
口口口口 |②---|
口口口口 |----|
49
②②②② |①---|
口口口口 |----|
口口口口 |②---|
①①①① |----|
50
口口口口 |①---|
①口口② |----|
①口口② |②---|
口口口口 |----|
51
口④④口 |①---|
口③③口 |②---|
口②②口 |③---|
口①①口 |④---|
52
①口口① |①---|
口口口口 |----|
口口口口 |②---|
②口口② |----|
53
口口口口 |①---|
①②③④ |②---|
①②③④ |③---|
口口口口 |④---|
54
口口口口 |①---|
①口口② |----|
①口口② |②---|
口口口口 |----|
55
口④④口 |①---|
口③③口 |②---|
口②②口 |③---|
口①①口 |④---|
56
①口口① |①---|
口口口口 |----|
口口口口 |②---|
②口口② |----|
57
口口口口 |①---|
④③②① |②---|
④③②① |③---|
口口口口 |④---|
58
口口①① |①---|
口口②② |----|
口口口口 |②---|
口口口口 |----|
59
①①口口 |①---|
②②口口 |----|
口口口口 |②---|
口口口口 |----|
60
口口口口 |①---|
口口口口 |----|
口口②② |②---|
口口①① |----|
61
口口口口 |①---|
口口口口 |----|
②②口口 |②---|
①①口口 |----|
62
口口口口 |①---②-|
①②③口 |--③---|
口⑥⑤④ |④---⑤-|
口口口口 |--⑥---|
63
口口口口 |①---②-|
①②③口 |--③---|
口⑥⑤④ |④---⑤-|
口口口口 |--⑥---|
64
口①口口 |①---②-|
口②③口 |--③---|
口⑤④口 |④---⑤-|
口⑥口口 |--⑥---|
65
口口①口 |①---②-|
口③②口 |--③---|
口④⑤口 |④---⑤-|
口口⑥口 |--⑥---|
66
口⑥⑤④ |①---②-|
口口口③ |--③---|
口口口② |④---⑤-|
口口口① |--⑥---|
67
①口口口 |①---②-|
②口口口 |--③---|
③口口口 |④---⑤-|
④⑤⑥口 |--⑥---|
68
口⑥⑤④ |①---②-|
口口口③ |--③---|
口口口② |④---⑤-|
口口口① |--⑥---|
69
口口口口 |①---②-|
口①口口 |--③---|
口②③口 |----|
口口口口 |----|


不确定度: 0

最終更新:2012年11月08日 18:19