Devil Fish Dumpling
96
ADVANCED
Level: 7
BPM: 166
Notes: 512
1
口口口口 |----|
口口口口 |----|
口口口口 |----|
口口口口 |----|
2
口口口口 |①---|
口①①口 |②---|
口口口口 |----|
口②③口 |③---|
3
②口口② |①---|
口口口口 |----②-|
口③④口 |----③-|
①口口① |----④-|
4
口口口口 |①---|
口①①口 |②---|
口口口口 |----|
口②③口 |③---|
5
④口口④ |①---|
③口口③ |②---|
②口口② |③---|
①口口① |④---|
6
口口口口 |①---|
口①①口 |②---|
口口口口 |----|
口②③口 |③---|
7
①口口① |①---|
口口口口 |----②-|
口③④口 |----③-|
②口口② |----④-|
8
口口口口 |①---|
口①①口 |②---|
口口口口 |----|
口②③口 |③---|
9
④口口④ |①---|
③口口③ |②---|
②口口② |③---|
①口口① |④---|
10
口⑤口口 |①-②-③-|
口⑥③④ |④---|
①②⑦口 |⑤-⑥-⑦-|
口口⑧口 |⑧---|
11
⑤⑦③④ |①-②-③-|
口口口口 |④---⑤-|
口口口口 |⑥---⑦-|
①②⑧⑥ |⑧---|
12
口⑤口口 |①-②-③-|
口⑥③④ |④---|
①②⑦口 |⑤-⑥-⑦-|
口口⑧口 |⑧---|
13
④口口④ |①---|
③口口③ |②---|
②口口② |③---|
①口口① |④---|
14
口⑤口口 |①-②-③-|
口⑥③④ |④---|
①②⑦口 |⑤-⑥-⑦-|
口口⑧口 |⑧---|
15
⑤⑦③④ |①-②-③-|
口口口口 |④---⑤-|
口口口口 |⑥---⑦-|
①②⑧⑥ |⑧---|
16
口⑤口口 |①-②-③-|
口⑥③④ |④---|
①②⑦口 |⑤-⑥-⑦-|
口口⑧口 |⑧---|
17
④口口④ |①---|
③口口③ |②---|
②口口② |③---|
①口口① |④---|
18
口⑦口口 |①-②-③-|
口⑥③④ |④---|
①②口口 |⑤---⑥-|
口口⑤口 |⑦---|
19
⑤⑦⑧⑥ |①-②-③-|
口口③④ |④---⑤-|
①②口口 |⑥---⑦-|
口口口口 |⑧---|
20
口⑦口口 |①-②-③-|
口⑥③④ |④---|
①②口口 |⑤---⑥-|
口口⑤口 |⑦---|
21
②口口② |①---|
③③口口 |②---|
口口④④ |③---④-|
①口口① |----|
22
口⑦口口 |①-②-③-|
口⑥③④ |④---|
①②口口 |⑤---⑥-|
口口⑤口 |⑦---|
23
⑤⑦⑧⑥ |①-②-③-|
口口③④ |④---⑤-|
①②口口 |⑥---⑦-|
口口口口 |⑧---|
24
口⑦口口 |①-②-③-|
口⑥③④ |④---|
①②口口 |⑤---⑥-|
口口⑤口 |⑦---|
25
②口口② |①---|
③③口口 |②---|
口口④④ |③---④-|
①口口① |----|
26
口⑤口口 |①-②-③-|
口⑥③④ |④---|
①②⑦口 |⑤-⑥-⑦-|
口口⑧口 |⑧---|
27
⑤⑦③④ |①-②-③-|
口口口口 |④---⑤-|
口口口口 |⑥---⑦-|
①②⑧⑥ |⑧---|
28
口⑤口口 |①-②-③-|
口⑥③④ |④---|
①②⑦口 |⑤-⑥-⑦-|
口口⑧口 |⑧---|
29
④口口④ |①---|
③口口③ |②---|
②口口② |③---|
①口口① |④---|
30
口⑤口口 |①-②-③-|
口⑥③④ |④---|
①②⑦口 |⑤-⑥-⑦-|
口口⑧口 |⑧---|
31
⑤⑦③④ |①-②-③-|
口口口口 |④---⑤-|
口口口口 |⑥---⑦-|
①②⑧⑥ |⑧---|
32
口⑤口口 |①-②-③-|
口⑥③④ |④---|
①②⑦口 |⑤-⑥-⑦-|
口口⑧口 |⑧---|
33
④口口④ |①---|
③口口③ |②---|
②口口② |③---|
①口口① |④---|
34
口口口口 |①---|
口①①口 |----②-|
口②②口 |----|
口口口口 |----|
35
①口口① |①---|
口口口口 |----②-|
口口口口 |----|
②口口② |----|
36
口口口口 |①---|
口①①口 |----②-|
口②②口 |----|
口口口口 |----|
37
①口口① |①---|
口口口口 |----②-|
口口口口 |----|
②口口② |----|
38
⑤⑤口口 |①---②-|
②②④④ |----③-|
③③①① |--④---|
口口口口 |⑤---|
39
⑤⑤②② |①---②-|
口口④④ |----③-|
③③口口 |--④---|
口口①① |⑤---|
40
⑤⑤口口 |①---②-|
①①④④ |----③-|
③③②② |--④---|
口口口口 |⑤---|
41
⑤⑤②② |①---②-|
口口④④ |----③-|
③③口口 |--④---|
口口①① |⑤---|
42
口⑤口口 |①---②-|
①口④口 |----③-|
口③口② |--④---|
口口口口 |⑤---|
43
⑤口口口 |①---②-|
口①口④ |----③-|
③口②口 |--④---|
口口口口 |⑤---|
44
口⑤口口 |①---②-|
①口④口 |----③-|
口③口② |--④---|
口口口口 |⑤---|
45
⑤口口口 |①---②-|
口①口④ |----③-|
③口②口 |--④---|
口口口口 |⑤---|
46
口⑤口口 |①---②-|
①口④口 |----③-|
口③口② |--④---|
口口口口 |⑤---|
47
⑤口口口 |①---②-|
口①口④ |----③-|
③口②口 |--④---|
口口口口 |⑤---|
48
口⑤口口 |①---②-|
①口④口 |----③-|
口③口② |--④---|
口口口口 |⑤---|
49
口口口口 |①---②-|
口①口口 |----③-|
口口②口 |--④---|
口③④⑤ |⑤---|
50
口⑤口口 |①-②-③-|
口⑥③④ |④---|
①②⑦口 |⑤-⑥-⑦-|
口口⑧口 |⑧---|
51
⑤⑦③④ |①-②-③-|
口口口口 |④---⑤-|
口口口口 |⑥---⑦-|
①②⑧⑥ |⑧---|
52
口⑤口口 |①-②-③-|
口⑥③④ |④---|
①②⑦口 |⑤-⑥-⑦-|
口口⑧口 |⑧---|
53
④口口④ |①---|
③口口③ |②---|
②口口② |③---|
①口口① |④---|
54
口⑤口口 |①-②-③-|
口⑥③④ |④---|
①②⑦口 |⑤-⑥-⑦-|
口口⑧口 |⑧---|
55
⑤⑦③④ |①-②-③-|
口口口口 |④---⑤-|
口口口口 |⑥---⑦-|
①②⑧⑥ |⑧---|
56
口⑤口口 |①-②-③-|
口⑥③④ |④---|
①②⑦口 |⑤-⑥-⑦-|
口口⑧口 |⑧---|
57
④口口④ |①---|
③口口③ |②---|
②口口② |③---|
①口口① |④---|
58
口口口口 |--①---|
⑥⑥③③ |②---③-|
⑤⑤②② |--④---|
④④①① |⑤---⑥-|
59
④④口口 |--①---|
⑤⑤③③ |②---③-|
⑥⑥②② |④---⑤-|
口口①① |--⑥---|
60
口口口口 |--①---|
⑥⑥③③ |②---③-|
⑤⑤②② |--④---|
④④①① |⑤---⑥-|
61
④④口口 |--①---|
⑤⑤③③ |②---③-|
⑥⑥②② |④---⑤-|
口口①① |--⑥---|
62
口口④③ |--①---|
口口②⑤ |②---③-|
口口⑥① |--④---|
口口口口 |⑤---⑥-|
63
口口口口 |--①---|
口①⑥⑥ |②---③-|
②口⑤⑤ |④---⑤-|
口③④④ |--⑥---|
64
口口口口 |--①---|
①⑥口口 |②---③-|
⑤②口口 |--④---|
③④口口 |⑤---⑥-|
65
④④③口 |--①---|
⑤⑤口② |②---③-|
⑥⑥①口 |④---⑤-|
口口口口 |--⑥---|
66
⑥⑥⑤⑤ |①---②-|
口口④④ |--③---|
口口③③ |④---⑤-|
①①②② |--⑥---|
67
口口④④ |①---②-|
①①⑤⑤ |--③---|
②②⑥⑥ |④---⑤-|
③③口口 |--⑥---|
68
口口口口 |①---②-|
口口口口 |--③---|
③③口口
②②①①
⑤⑤口口
④④口口
口口口口 |④---⑤-|
口口⑥⑥ |--⑥---|
69
口口③③ |①---②-|
口口②② |--③---|
口口①① |----|
口口口口 |----|
不确定度: 0