スーパーフレア
The Mirraz
EXTREME
Level: 8
BPM: 164
Notes: 552
1
口口口口 |----|
口口口口 |----|
口口口口 |----|
口口口口 |----|
2
口⑦⑦口 |①-②-|
⑥口口⑤ |③-④-|
口④③口 |⑤-⑥-|
②口口① |⑦---|
3
②口口① |①-②-|
口④③口 |③-④-|
⑥口口⑤ |⑤-⑥-|
口⑦⑦口 |⑦---|
4
口⑦⑦口 |①-②-|
⑤口口⑥ |③-④-|
口③④口 |⑤-⑥-|
①口口② |⑦---|
5
①口口② |①-②-|
口③④口 |③-④-|
⑤口口⑥ |⑤-⑥-|
口⑦⑦口 |⑦---|
6
口⑦⑦口 |①-②-|
⑥口口⑤ |③-④-|
口④③口 |⑤-⑥-|
②口口① |⑦---|
7
②口口① |①-②-|
口④③口 |③-④-|
⑥口口⑤ |⑤-⑥-|
口⑦⑦口 |⑦---|
8
口⑦⑦口 |①-②-|
⑤口口⑥ |③-④-|
口③④口 |⑤-⑥-|
①口口② |⑦---|
9
①口口② |①-②-|
口③④口 |③-④-|
⑤口口⑥ |⑤-⑥-|
口⑦⑦口 |⑦---|
10
③口口③ |①---|
②口口② |--②-|
口④口口 |③---|
①口口① |--④-|
11
③⑤⑤③ |①--②|
②口①② |--③-|
口口口口 |④---|
口④④口 |⑤---|
12
③口口③ |①---|
②口口② |--②-|
口口④口 |③---|
①口口① |--④-|
13
③⑤⑤③ |①--②|
②①口② |--③-|
口口口口 |④---|
口④④口 |⑤---|
14
③口口③ |①---|
②口口② |--②-|
口④口口 |③---|
①口口① |--④-|
15
③⑤⑤③ |①--②|
②口①② |--③-|
口口口口 |④---|
口④④口 |⑤---|
16
③口口③ |①---|
②口口② |--②-|
口口④口 |③---|
①口口① |--④-|
17
③口口③ |①--②|
②①口② |--③-|
口口口口
口口口口
口口口口
口⑧⑦口
口⑥⑤口 |④---|
口④④口 |⑤⑥⑦⑧|
18
口⑦④③ |--①-|
口口⑥口 |②-③④|
②⑤⑧① |--⑤⑥|
口口口口 |⑦--⑧|
19
②口口② |①-②-|
①口口① |----|
口⑥⑤口 |----|
口④③口 |③④⑤⑥|
20
⑧⑨③⑦ |-①②-|
④①②⑤ |③-④⑤|
口口⑥口 |--⑥-|
口口口口 |⑦-⑧⑨|
21
口口口口 |--①-|
口①①口 |----|
口口口口
口口口口
口⑤口口
口口④口
口③口口 |----|
口口②口 |②③④⑤|
22
①⑩②① |--①-|
口③⑨口 |②③④⑤|
⑥⑧④⑥ |--⑥-|
口⑤⑦口 |⑦⑧⑨⑩|
23
②口口② |①-②-|
①口口① |--③-|
③⑦⑥③ |----|
口⑤④口 |④⑤⑥⑦|
24
⑥④③⑤ |-①②-|
口①②口 |③④⑤⑥|
口口口口
口口口口
口口口口
口⑨⑨口
⑦口口⑦ |--⑦-|
口⑧⑧口 |⑧-⑨-|
25
口口口口 |①---|
口口口口 |----|
口①①口
口口口口
口口口口
口口口口
口⑤④口 |----|
口③②口 |②③④⑤|
26
口②③口 |--①-|
①④④① |②③-④|
⑤⑨⑧⑤ |--⑤-|
口⑦⑥口 |⑥⑦⑧⑨|
27
口③③口 |----|
口口口口 |----|
口口②口 |----|
口①口口 |①②-③|
28
④口口④ |--①-|
①口③① |②③-④|
⑧②⑤⑨ |--⑤-|
⑥口口⑦ |⑥⑦⑧⑨|
29
口①①口 |①---|
口口口口 |----|
口⑤④口 |----|
口③②口 |②③④⑤|
30
②④③① |--①-|
口⑤⑤口 |②-③-|
口⑨⑧口 |④-⑤-|
口⑦⑥口 |⑥⑦⑧⑨|
31
口口⑤口 |①---|
①④③① |②-③④|
②口⑧② |⑤---|
口⑦⑥口 |⑥⑦⑧-|
32
口④⑩③ |①②③-|
②⑨⑥① |④-⑤⑥|
⑧⑤口⑧ |--⑦-|
口⑦⑦口 |⑧-⑨⑩|
33
口口口口 |----|
口口口口 |----|
口口口口 |----|
口口①① |--①-|
34
口④①① |①---|
口口②口 |②---|
口口口口 |③-④-|
⑤③口口 |--⑤-|
35
⑦口③口 |①-②-|
②口⑥口 |③---|
⑤口①口 |④-⑤-|
口口④口 |⑥-⑦-|
36
口口⑥口 |①--②|
口口⑤③ |--③-|
口⑥④② |④--⑤|
口口③① |--⑥-|
37
⑤②口口 |①--②|
④①口口 |--③-|
③口口口 |④---|
口口口口 |⑤---|
38
口①④口 |①---|
口②口口 |②---|
口口口口 |③-④-|
口口③⑤ |--⑤-|
39
口③口⑦ |①-②-|
口⑥口② |③---|
口①口⑤ |④-⑤-|
口④口口 |⑥-⑦-|
40
口⑥口口 |①--②|
③⑤口口 |--③-|
②④⑥口 |④--⑤|
①③口口 |--⑥-|
41
口口②口 |①--②|
口口①④ |--③-|
口口口③ |④---|
口口口口 |----|
42
⑥⑩⑩⑤ |①-②-|
④⑦⑧③ |③④⑤⑥|
口②①口 |-⑦-⑧|
口⑨⑨口 |⑨-⑩-|
43
⑤⑩⑩⑥ |①-②-|
③⑧⑦④ |③④⑤⑥|
口①②口 |-⑦-⑧|
口⑨⑨口 |⑨-⑩-|
44
⑥⑩⑩⑤ |①-②-|
④⑦⑧③ |③④⑤⑥|
口②①口 |-⑦-⑧|
口⑨⑨口 |⑨-⑩-|
45
②④④② |①---|
口口口口 |②---|
口口口口 |③---|
①③③① |④---|
46
⑤⑩⑩⑥ |①-②-|
③⑧⑦④ |③④⑤⑥|
口①②口 |-⑦-⑧|
口⑨⑨口 |⑨-⑩-|
47
⑥⑩⑩⑤ |①-②-|
④⑦⑧③ |③④⑤⑥|
口②①口 |-⑦-⑧|
口⑨⑨口 |⑨-⑩-|
48
⑤⑩⑩⑥ |①-②-|
③⑧⑦④ |③④⑤⑥|
口①②口 |-⑦-⑧|
口⑨⑨口 |⑨-⑩-|
49
②④④② |①---|
口口口口 |②---|
口口口口 |③---|
①③③① |④---|
50
⑥⑩⑩⑤ |①-②-|
④⑦⑧③ |③④⑤⑥|
口②①口 |-⑦-⑧|
口⑨⑨口 |⑨-⑩-|
51
⑤⑩⑩⑥ |①-②-|
③⑧⑦④ |③④⑤⑥|
口①②口 |-⑦-⑧|
口⑨⑨口 |⑨-⑩-|
52
⑥⑩⑩⑤ |①-②-|
④⑦⑧③ |③④⑤⑥|
口②①口 |-⑦-⑧|
口⑨⑨口 |⑨-⑩-|
53
②④④② |①---|
口口口口 |②---|
口口口口 |③---|
①③③① |④---|
54
⑤⑩⑩⑥ |①-②-|
③⑧⑦④ |③④⑤⑥|
口①②口 |-⑦-⑧|
口⑨⑨口 |⑨-⑩-|
55
⑥⑩⑩⑤ |①-②-|
④⑦⑧③ |③④⑤⑥|
口②①口 |-⑦-⑧|
口⑨⑨口 |⑨-⑩-|
56
⑤⑩⑩⑥ |①-②-|
③⑧⑦④ |③④⑤⑥|
口①②口 |-⑦-⑧|
口⑨⑨口 |⑨-⑩-|
57
②④④② |①---|
口口口口 |②---|
口口口口 |③---|
①③③① |④---|
58
口口口口 |①---|
口①①口 |----|
口口口口
口口口口
口口口口
口⑤口口
口④③口 |--②-|
口口②口 |③④-⑤|
59
口②口① |--①-|
④口③口 |②-③④|
口口口口
口口口口
⑦口⑥⑧
口口口口
口口⑤口 |--⑤-|
口口口口 |⑥-⑦⑧|
60
⑥④④⑥ |①--②|
口②②口 |--③-|
口⑤⑤口 |④--⑤|
③①①③ |--⑥-|
61
⑥④④⑥ |①--②|
口②②口 |--③-|
口⑤⑤口 |④--⑤|
③①①③ |--⑥-|
62
⑥④④⑥ |①--②|
口②②口 |--③-|
口⑤⑤口 |④--⑤|
③①①③ |--⑥-|
63
口④④口 |①--②|
口②②口 |--③-|
③口口③ |④---|
口①①口 |----|
不確定度: 0