IX
dj TAKA VS DJ TOTTO feat.藍
EXTREME
Level: 10
BPM: 198
Notes: 984
1
口口口口 |----|
口口口口 |----|
口口口口 |----|
口口口口 |----|
2
口口口口 |----|
口口口口 |----|
口口口口 |----|
口口口口 |----|
3
①口口① |①---|
口口口口 |----|
口①口口 |----|
口口口口 |----|
4
口口口口 |①---|
口口①口 |----|
口口口口 |----|
①口口① |----|
5
口⑤④口 |①---|
①口口① |②---|
口③口口 |③---|
口①②口 |④-⑤-|
6
口口口口 |①---|
口⑥①③ |②-③-|
④口口④ |④---|
①②⑤① |⑤-⑥-|
7
①口口① |①---|
口⑤④口 |②---|
口③①口 |③---|
口口口② |④-⑤-|
8
④口①口 |①---|
口口口⑤ |②-③-|
①口③① |④-⑤-|
⑥②口⑦ |⑥-⑦-|
9
口①②口 |①---|
口⑤口口 |②---|
①口口① |③---|
口③④口 |④-⑤-|
10
①④⑨① |①---|
⑧口③⑦ |----|
口②①⑤ |②③④⑤|
⑥口口口 |⑥⑦⑧⑨|
11
口口口口 |①---|
口口口口 |----|
口口口口 |----|
口①①口 |----|
12
口口口口 |----|
口口口口 |----|
口口口口 |----|
口口口口 |----|
13
口①口口 |①---|
口口口① |----|
①口口口 |----|
口口①口 |----|
14
口口口口 |----|
口口口口 |----|
口①①口 |--①-|
口口口口 |----|
15
口口①口 |①---|
①口口口 |----|
口口口① |----|
口①口口 |----|
16
口口口口 |----|
口口口口 |----|
口口口口 |----|
口口口口 |----|
17
口①口口 |①---|
口口口① |----|
①口口口
口口①口
口口口口
②口口②
口口口口 |----|
口②口口 |--②-|
18
①②①⑤ |--①-|
口⑦③⑪ |--②③|
①⑥⑧④ |④⑤⑥⑦|
口⑩口⑨ |⑧⑨⑩⑪|
19
①⑤③⑦ |①-②-|
②口⑦⑧ |③-④-|
⑤⑥口④ |⑤-⑥-|
①口③口 |⑦-⑧-|
20
①口⑦口 |①-②-|
②①⑧⑦ |③-④-|
⑤⑤③④ |⑤-⑥-|
⑥口口③ |⑦-⑧-|
21
⑤①⑦③ |①-②-|
②口口⑦ |③-④-|
⑤口⑧口 |⑤-⑥-|
⑥①④③ |⑦-⑧-|
22
⑤②口⑦ |①-②-|
①⑤③口 |③-④-|
⑥①⑦⑧ |⑤-⑥-|
口口④③ |⑦-⑧-|
23
⑤①③口 |①-②-|
⑥⑤④⑦ |③-④-|
口⑩⑨⑧ |⑤-⑥-|
②①③⑦ |⑦--⑧⑨⑩|
24
④口②② |①---|
口④③口 |②-③-|
①⑪⑩⑨ |④--⑤⑥⑦|
⑧⑦⑥⑤ |⑧--⑨⑩⑪|
25
口⑤⑧④ |①②③④|
③⑦⑥② |⑤⑥⑦⑧|
①口口口
口口口口
⑨口口口
口口口⑯
口⑮口⑭ |⑨⑩⑪⑫|
⑬⑪⑫⑩ |⑬⑭⑮⑯|
26
口口口口 |①---|
口口口口 |----|
①②②口 |----|
口口口口 |②---|
27
口口①② |①---|
口口②① |②---|
口口口口
①②口口
③③⑥口
④④口⑥
口口口口 |③-④-|
口口③⑤ |⑤-⑥-|
28
口口口口 |①---|
口口口口 |②---|
口口口口 |③---|
①②③④ |④---|
29
口①口口 |①---|
①②②口 |②---|
口口口口
①②口口
③⑥口④
⑥口口口
口口口口 |③-④-|
口口③⑤ |⑤-⑥-|
30
口口②口 |①-②-|
口④④② |③-④-|
口口口口 |⑤---|
①③⑤⑥ |⑥---|
31
①①⑥⑥ |①---|
③④②② |②---|
口口口口 |③-④-|
①②③⑤ |⑤-⑥-|
32
④④口口 |①-②-|
口口②② |③-④-|
口口口口 |⑤---|
①③⑤⑥ |⑥---|
33
口②①① |①---|
②③④口 |②---|
口口口口 |③-④-|
①②③⑤ |⑤---|
34
①⑤⑥① |①-②-|
④⑦⑦④ |③-④-|
口②③口 |⑤-⑥-|
口口口口 |⑦---|
35
口口口① |①-②-|
⑧⑨口口 |③-④-|
②④⑥⑧ |⑤-⑥-|
①③⑤⑦ |⑦-⑧⑨|
36
口口口⑤ |①-②-|
口口①口 |③-④-|
②④⑥⑧ |⑤-⑥-|
①③⑤⑦ |⑦-⑧-|
37
口口口口 |①-②-|
口①口口 |③-④-|
②④口口
①③口口
口口⑤口
⑧⑨口口
口口⑥⑧ |⑤-⑥-|
口口⑤⑦ |⑦-⑧⑨|
38
⑧①⑥③ |①-②-|
口口⑤④ |③-④⑤|
②④⑦⑨ |⑥-⑦-|
①③⑥⑧ |⑧-⑨-|
39
口口口⑤ |①-②-|
口①口口 |③-④-|
②④⑥⑧ |⑤-⑥-|
①③⑤⑦ |⑦-⑧-|
40
口①口口 |①-②-|
口⑥⑤④ |③-④⑤|
②④⑦口 |⑥-⑦-|
①③⑥⑧ |⑧---|
41
①⑥口③ |①-②-|
①⑨④⑨ |③④⑤⑥|
②⑤口⑦ |⑦-⑧-|
②⑧口⑧ |--⑨-|
42
口口⑧④ |----|
③⑦口口 |----|
口口②⑥ |①②③④|
⑤①口口 |⑤⑥⑦⑧|
43
①口口口 |①---|
口口②口 |----|
①③口口 |----|
口口口口 |--②③|
44
口口③⑤ |①---|
口④口口 |--②-|
④口⑤③ |③--④|
②口①口 |--⑤-|
45
①①口⑥ |①--②|
③口②② |--③-|
⑤⑤口⑥ |④--⑤|
口③④④ |--⑥-|
46
口口口口 |①---|
口①④口 |----|
口③口口 |--②-|
①口②口 |③-④-|
47
口①③④ |①---|
①⑤口③ |②-③-|
②口⑥口 |--④-|
口②口口 |⑤-⑥-|
48
口③口④ |①---|
③⑤口口 |②-③-|
口①口② |--④-|
①口②⑥ |⑤-⑥-|
49
①⑤⑯⑫ |①②③④|
⑪⑬②⑥ |⑤⑥⑦⑧|
⑦③⑩⑧ |⑨⑩⑪⑫|
⑮⑨④⑭ |⑬⑭⑮⑯|
50
①⑤口口 |①-②-|
口口②口 |③-④-|
⑥③口口 |--⑤-|
口⑦④口 |⑥-⑦-|
51
④口口④ |①-②-|
⑦①①⑧ |③-④-|
⑦⑤⑥⑧ |⑤-⑥-|
②口口③ |⑦-⑧-|
52
⑦①①⑧ |①-②-|
口④④口 |③-④-|
口⑦⑧口 |⑤-⑥-|
②⑤⑥③ |⑦-⑧-|
53
⑬①②⑭ |①②③④|
③⑦⑥④ |⑤⑥⑦⑧|
⑨⑮⑯⑩ |⑨⑩⑪⑫|
⑤⑪⑫⑧ |⑬⑭⑮⑯|
54
口①②口 |①②③④|
③⑦⑥④ |⑤⑥⑦⑧|
口口口口
⑤口口⑧
⑬口⑯⑫
口口口口
⑨⑮口⑩ |⑨⑩⑪⑫|
口⑪⑭口 |⑬⑭⑮⑯|
55
⑦①口⑦ |①-②-|
④③⑥④ |③-④-|
口⑧②口 |⑤-⑥-|
口⑤口口 |⑦-⑧-|
56
口①①口 |①-②-|
④③口④ |③-④-|
口⑦⑦口 |⑤-⑥-|
⑧⑤⑥② |⑦-⑧-|
57
口①①口 |①-②-|
口④④口 |③-④-|
③⑦⑦② |⑤-⑥-|
口⑥⑧⑤ |⑦-⑧-|
58
①④④① |①-②-|
口口口口 |③-④-|
②口口③
口口口口
⑨口口口
口⑥⑤口
口口⑧口 |⑤-⑥-|
⑦口口⑦ |⑦-⑧⑨|
59
口⑧⑦③ |①②③④|
口口口① |⑤⑥⑦⑧|
⑥④口口
口②⑤口
口口口口
⑩⑭⑪口
口口⑮⑨ |⑨⑩⑪⑫|
⑫⑯口⑬ |⑬⑭⑮⑯|
60
口②口口 |①---|
口口③① |----|
口⑤口④ |----|
口口口口 |②③④⑤|
61
⑤口口① |①---|
②③口④ |②--③|
②口③口 |--④-|
⑥④口③ |⑤-⑥-|
62
口③①② |--①-|
⑦口②⑧ |②--③|
口②⑥③ |--④-|
口⑤④④ |⑤⑥⑦⑧|
63
①⑤④② |①-②-|
口⑥②口 |③--④|
⑤③⑦④ |--⑤-|
③口口⑧ |⑥⑦⑧-|
64
⑤口④② |--①-|
⑬⑫⑪⑩ |②③④⑤|
⑨③口⑥ |⑥⑦⑧⑨|
①⑦⑧口 |⑩⑪⑫⑬|
65
口①⑤④ |①-②③|
口⑪⑩口 |④---|
⑥③①⑧ |⑤⑥⑦-|
⑨口⑦② |⑧⑨⑩⑪|
66
口①口④ |①-②③|
口口口口 |④---|
口③①口
口口口②
口口⑦口
⑥⑪口⑧
口口⑩口 |⑤⑥⑦-|
口⑨⑤口 |⑧⑨⑩⑪|
67
②⑫⑨③ |①②③④|
⑩⑯⑦⑬ |⑤⑥⑦⑧|
⑧⑥⑮⑤ |⑨⑩⑪⑫|
④⑭⑪① |⑬⑭⑮⑯|
68
②⑤④① |①-②-|
口口口口 |--③-|
③口口③ |--④-|
②⑤④① |⑤---|
69
④口口① |①-②-|
口⑧③① |③-④-|
口③⑦⑦ |⑤-⑥-|
②⑥口⑤ |⑦-⑧-|
70
④口⑨⑤ |①-②-|
⑥⑩③① |③-④-|
②③⑪⑦ |⑤⑥⑦⑧|
⑧⑫①口 |⑨⑩⑪⑫|
71
⑤⑤口④ |①-②-|
口⑦⑧① |③-④-|
②③口⑥ |⑤-⑥-|
⑦口③① |⑦-⑧-|
72
口口⑧口 |①②③④|
①口口④ |⑤⑥⑦⑧|
③⑦⑥口
口⑤口②
⑨⑮口⑭
口⑬口口
口口口⑩ |⑨⑩⑪⑫|
⑪口⑫⑯ |⑬⑭⑮⑯|
73
⑨口⑪口 |①-②-|
①⑩③⑫ |③-④-|
④⑥口⑧ |⑤⑥⑦⑧|
⑤②⑦口 |⑨⑩⑪⑫|
74
⑨①⑪口 |①-②-|
口⑩③⑫ |③-④-|
口⑥④⑧ |⑤⑥⑦⑧|
⑤口⑦② |⑨⑩⑪⑫|
75
口③⑥② |①-②-|
①口②口 |③---|
①④⑤⑤ |④-⑤-|
④③⑥口 |⑥---|
76
⑤③⑥② |①---②-|
口①①口 |--③---|
口④④口 |④---⑤-|
⑤③⑥② |--⑥---|
77
口口口口 |①---|
①①①① |----|
①口口① |----|
口口口口 |----|
78
口口口口 |①---|
口口口口 |----|
口①①口 |----|
口口口② |②---|
79
口①①口 |①---|
口口口口 |----|
口口口口 |----|
口口口口 |----|
80
口②③口 |①---|
②④④③ |--②-|
⑤①①口 |③--④|
口⑤口口 |--⑤-|
81
口口口口 |①---|
口口口口 |----|
口②②① |②---|
口口①口 |----|
82
①口口① |①---|
口口口口 |----|
口③③口 |②---|
②口口② |③---|
83
⑤⑦⑨⑪ |①-②-|
口①口④ |③-④-|
③口口② |⑤⑥⑦⑧|
⑫⑩⑧⑥ |⑨⑩⑪⑫|
84
②口口⑥ |①---|
③①①⑦ |----|
④①①⑧ |②③④⑤|
口⑤⑨口 |⑥⑦⑧⑨|
85
口③口口 |①---|
口①②口 |②--③|
口③口口
①口口②
④口口⑤
④⑥口口
口口⑤口 |--④-|
口⑥口口 |⑤-⑥-|
86
口口⑧口 |--①-|
口⑦④② |②--③|
③③⑥② |--④-|
①⑤①④ |⑤⑥⑦⑧|
87
①③口③ |①-②-|
②口⑥④ |③--④|
⑦⑤口④ |--⑤-|
②口⑧口 |⑥⑦⑧-|
88
口③④① |--①-|
⑬⑫⑪⑩ |②③④⑤|
⑨⑧⑦⑥ |⑥⑦⑧⑨|
⑤口口② |⑩⑪⑫⑬|
89
④⑤⑧③ |①-②③|
口口口口 |④---|
⑨⑩⑪⑫ |⑤⑥⑦⑧|
⑦②①⑥ |⑨⑩⑪⑫|
90
⑤⑥⑦⑧ |①-②③|
①④口③ |④---|
⑨⑩⑪⑫ |⑤⑥⑦⑧|
口②口口 |⑨⑩⑪⑫|
91
⑦口口口 |①②③④|
③口④⑧ |⑤⑥⑦⑧|
口口口口
①⑤②⑥
口⑨⑫⑩
口⑮口口
⑪⑬⑭口 |⑨⑩⑪⑫|
口口⑯口 |⑬⑭⑮⑯|
92
⑤⑦口⑧ |①②③④|
③口②⑥ |⑤⑥⑦⑧|
口口口口
①口口④
口口⑭口
口⑮⑯口
⑨⑪⑫⑩ |⑨⑩⑪⑫|
口⑬口口 |⑬⑭⑮⑯|
93
②⑤⑦④ |①-②-|
①口口③ |③-④-|
口⑤⑦口 |⑤-⑥-|
①⑥⑧③ |⑦-⑧-|
94
①⑤⑦③ |①-②-|
②⑥⑧④ |③-④-|
口口口口 |⑤-⑥-|
①⑤⑦③ |⑦-⑧-|
95
②⑤⑦④ |①-②-|
①口口③ |③-④-|
口⑤⑦口 |⑤-⑥-|
①⑥⑧③ |⑦-⑧-|
96
①⑤⑦③ |①-②-|
口口口口 |③-④-|
②⑥⑧④ |⑤-⑥-|
①⑤⑦③ |⑦-⑧-|
97
①⑤口⑧ |①-②-|
口口口④ |③-④-|
⑦口口口 |⑤-⑥-|
③口⑥② |⑦-⑧-|
98
⑦口⑥口 |①②③④|
口①口口 |⑤⑥⑦⑧|
口③②⑧
⑤口口④
口⑮口⑭
⑪口口⑩
⑬口⑯口 |⑨⑩⑪⑫|
口⑨⑫口 |⑬⑭⑮⑯|
99
口口口口 |①---|
口①①口 |----|
口口口口
口口口口
⑦⑧⑨⑩
②⑪⑪口
口⑪⑪口 |②--③④⑤⑥-|
⑥⑤④③ |⑦⑧⑨⑩⑪---|
不確定度: 0