Condor
Remo-con

EXTREME

Level: 9
BPM: 142
Notes: 679

1
口口口口 |----|
口口口口 |----|
口口口口 |----|
口口口口 |----|
2
①①④④ |①---②-|
口②⑤口 |--③---|
口③⑥口 |④---⑤-|
口⑦口口 |--⑥-⑦-|
3
①①⑥⑥ |①---②③|
⑩②⑦② |④-⑤---|
⑨⑤⑨③ |⑥---⑦-|
⑧口口④ |⑧-⑨-⑩-|
4
①①⑤⑤ |①---②-|
⑥②⑥③ |③-④---|
口④⑦口 |⑤---⑥-|
口口口口 |--⑦---|
5
口口口口 |①---②-|
③③口④ |--③-④⑤|
②②口⑤
①①口口

口口口口
口口⑨口
口口⑦口 |⑥---⑦-|
⑧口⑥⑥ |⑧-⑨---|
6
①①④④ |①---②-|
口②⑤口 |--③---|
口③⑥口 |④---⑤-|
口口口口 |--⑥---|
7
①①⑥⑥ |①---②③|
⑩②⑦② |④-⑤---|
⑨⑤⑨③ |⑥---⑦-|
⑧口口④ |⑧-⑨-⑩-|
8
①①⑤⑤ |①---②-|
⑥②⑥③ |③-④---|
口④⑦口 |⑤---⑥-|
口口口口 |--⑦---|
9
①①⑥⑥ |①---②-|
口②⑦⑤ |--③-④⑤|
口③⑧④ |⑥---⑦-|
口口口口 |--⑧---|
10
口①口口 |①---|
口口②③ |--②③|
①口口口
口口口①

④⑤⑤口
④口口口
口口口④ |--④-|
口⑤⑤④ |-⑤--|
11
口口口① |①---|
口口③⑤ |②③④⑤|
口口②④
①口口口

口⑦口⑧
口口口口
⑦口口口 |⑥-⑦-|
⑧口⑥⑦ |-⑧--|
12
口③口口 |①--②|
①②②口 |--③-|
③②②①
口口口③

口口④口
口口⑥口
口⑤口④ |--④-|
④口口口 |--⑤⑥|
13
⑤①口③ |①-②③|
⑤口口③ |-④⑤-|
①口口口
口②④①

口口口口
口⑪⑫口
⑨⑥⑥⑩ |⑥-⑦-⑧-|
⑦口口⑧ |⑨⑩⑪⑫|
14
①口口④ |①---|
①⑤⑤口 |--②-|
⑥③③口 |③---|
口口口② |④-⑤-⑥-|
15
④口③口 |①---|
口口口③ |----|
口⑦⑥⑤ |②-③-|
②①口口 |④⑤⑥⑦|
16
口④④② |①---|
①口口② |②---|
①口口口 |③---④-|
③口口③ |----|
17
口口⑤④ |①-②③|
口口③② |-④⑤-|
①口口①
口口口口

口口口口
口⑪⑫口
⑨⑥⑥⑩ |⑥-⑦-⑧-|
⑦口口⑧ |⑨⑩⑪⑫|
18
①口口口 |①---|
①口口② |--②-|
口口口口
口口口口

口口口口
③口口口
口口口口 |----|
口口口口 |③---|
19
口口③口 |--①-|
口②口口 |----|
口口口① |②---|
口口口口 |③---|
20
口口口口 |①---|
口口口② |--②-|
③①口口 |----|
口口口口 |③---|
21
口口口口 |--①-|
口②口口 |----|
口口①口 |②---|
口③口口 |--③-|
22
口口口口 |①---|
口口⑤口 |②---|
③③口④ |③---|
①口②② |④-⑤-|
23
口口口口 |①---|
口口⑤口 |②---|
③③④④ |③---|
①口②② |④-⑤-|
24
口口④口 |①-②-|
口口⑥口 |③-④-|
⑤⑤口⑦ |⑤--⑥|
①②⑧③ |⑦-⑧-|
25
③口口③ |①-②-|
口口口口 |--③-|
口②②口 |----|
①口口口 |----|
26
②③⑥⑤ |①-②③|
⑦④⑦⑧ |④-⑤⑥|
⑧⑨⑫⑪ |⑦-⑧⑨|
⑪⑩①⑩ |⑩-⑪⑫|
27
②③⑥⑤ |①-②③|
⑦④⑦⑧ |④-⑤⑥|
⑧⑨⑫⑪ |⑦-⑧⑨|
⑪⑩①⑩ |⑩-⑪⑫|
28
②③⑥⑤ |①-②③|
⑦④⑦⑧ |④-⑤⑥|
⑧⑨⑫⑪ |⑦-⑧⑨|
⑪⑩①⑩ |⑩-⑪⑫|
29
②③⑤① |-①②③|
⑥④⑤⑦ |④-⑤-|
口口口口 |⑥-⑦-|
⑨口口⑧ |⑧-⑨-|
30
②③⑥⑤ |①-②③|
⑦④⑦⑧ |④-⑤⑥|
⑧⑨⑫⑪ |⑦-⑧⑨|
⑪⑩①⑩ |⑩-⑪⑫|
31
②③⑥⑤ |①-②③|
⑦④⑦⑧ |④-⑤⑥|
⑧⑨⑫⑪ |⑦-⑧⑨|
⑪⑩①⑩ |⑩-⑪⑫|
32
②③⑥⑤ |①-②③|
⑦④⑦⑧ |④-⑤⑥|
⑧⑨⑫⑪ |⑦-⑧⑨|
⑪⑩①⑩ |⑩-⑪⑫|
33
①口口① |-①-②|
④②②⑤ |--③-|
⑥⑦⑤④ |④-⑤-|
⑦③③⑥ |⑥-⑦-|
34
②③⑥⑤ |①-②③|
⑦④⑦⑧ |④-⑤⑥|
⑧⑨⑫⑪ |⑦-⑧⑨|
⑪⑩①⑩ |⑩-⑪⑫|
35
②③⑥⑤ |①-②③|
⑦④⑦⑧ |④-⑤⑥|
⑧⑨⑫⑪ |⑦-⑧⑨|
⑪⑩①⑩ |⑩-⑪⑫|
36
②③⑥⑤ |①-②③|
⑦④⑦⑧ |④-⑤⑥|
⑧⑨⑫⑪ |⑦-⑧⑨|
⑪⑩①⑩ |⑩-⑪⑫|
37
口口③② |----|
④①④⑤ |①-②③|
⑤⑥⑨⑧ |④-⑤⑥|
⑧口口⑦ |⑦-⑧⑨|
38
②③⑥⑤ |①-②③|
⑦④⑦⑧ |④-⑤⑥|
⑧⑨⑫⑪ |⑦-⑧⑨|
⑪⑩①⑩ |⑩-⑪⑫|
39
②③⑥⑤ |①-②③|
⑦④⑦⑧ |④-⑤⑥|
⑧⑨⑫⑪ |⑦-⑧⑨|
⑪⑩①⑩ |⑩-⑪⑫|
40
②③⑥⑤ |①-②③|
⑦④⑦⑧ |④-⑤⑥|
⑧⑨⑫⑪ |⑦-⑧⑨|
⑪⑩①⑩ |⑩-⑪⑫|
41
①①口口 |①---|
口②口⑦ |----|
⑧④⑨⑤ |②③④⑤|
口⑥①③ |⑥⑦⑧⑨|
42
②③⑥⑤ |①-②③|
⑦④⑦⑧ |④-⑤⑥|
⑧⑨⑫⑪ |⑦-⑧⑨|
⑪⑩①⑩ |⑩-⑪⑫|
43
②③⑥⑤ |①-②③|
⑦④⑦⑧ |④-⑤⑥|
⑧⑨⑫⑪ |⑦-⑧⑨|
⑪⑩①⑩ |⑩-⑪⑫|
44
②③⑥⑤ |①-②③|
⑦④⑦⑧ |④-⑤⑥|
⑧⑨⑫⑪ |⑦-⑧⑨|
⑪⑩①⑩ |⑩-⑪⑫|
45
②③⑤① |-①②③|
⑥④⑤⑦ |④-⑤-|
口口口口 |⑥-⑦-|
⑨口口⑧ |⑧-⑨-|
46
②③⑥⑤ |①-②③|
⑦④⑦⑧ |④-⑤⑥|
⑧⑨⑫⑪ |⑦-⑧⑨|
⑪⑩①⑩ |⑩-⑪⑫|
47
②③⑥⑤ |①-②③|
⑦④⑦⑧ |④-⑤⑥|
⑧⑨⑫⑪ |⑦-⑧⑨|
⑪⑩①⑩ |⑩-⑪⑫|
48
②③⑥⑤ |①-②③|
⑦④⑦⑧ |④-⑤⑥|
⑧⑨⑫⑪ |⑦-⑧⑨|
⑪⑩①⑩ |⑩-⑪⑫|
49
①口口① |-①-②|
④②②⑤ |--③-|
⑥⑦⑤④ |④-⑤-|
⑦③③⑥ |⑥-⑦-|
50
口②口③ |①--②|
④口口⑤ |--③-|
口口⑦⑦ |④-⑤-|
⑧⑤①⑥ |⑥⑦⑧-|
51
口②口③ |①--②|
④口①⑤ |--③-|
口口⑦⑦ |④-⑤-|
⑧⑤①⑥ |⑥⑦⑧-|
52
口②口③ |①--②|
④③①⑤ |--③-|
⑧③口口 |④-⑤-|
⑦⑤①⑥ |⑥-⑦⑧|
53
③③⑤⑤ |①-②③|
口口①口 |-④⑤-|
口②④口
口口①口

口口口口
⑧⑨⑩口
口⑪⑫⑦ |⑥-⑦-⑧-|
⑥口口口 |⑨⑩⑪⑫|
54
⑥②口③ |①--②|
④口口⑤ |--③-|
①口口口 |④-⑤-|
⑦口①⑥ |⑥-⑦-|
55
口②口③ |①--②|
口口口口 |--③-|
口口①口
口口①口

口口口口
④口口⑤
口口⑦⑦ |④-⑤-|
⑧⑤口⑥ |⑥⑦⑧-|
56
口②口③ |①--②|
④口①⑤ |--③-|
口口口口 |④-⑤-|
⑦口①⑥ |⑥-⑦-|
57
口③口⑤ |①-②③|
口口口口 |-④⑤-|
口②口④
口口①口

口口口口
口⑨⑩⑥
⑦⑪⑫口 |⑥-⑦-⑧-|
口口口⑧ |⑨⑩⑪⑫|
58
口②口③ |①--②|
④口口⑤ |--③-|
口口口口 |④-⑤-|
⑦口①⑥ |⑥-⑦-|

不確定度: 0

最終更新:2014年08月02日 00:22