轟け!恋のビーンボール!!
ダイナミック野球兄弟 v.s. クロスファイヤーPrim

EXTREME

Level: 10
BPM: 180
Notes: 791

1
口口口口 |----|
口口口口 |----|
口口口口 |----|
口口口口 |----|
2
口口口口 |----|
口口②口 |----|
口口口口 |----|
口口①口 |①---②-|
3
口①口⑤ |①---|
口⑧口④ |②-③-④-|
口口⑦③ |⑤---|
口⑥口② |⑥-⑦-⑧-|
4
⑤口①口 |①---|
④口⑦口 |②-③-④-|
③口口口 |⑤---|
②口⑥口 |⑥---⑦-|
5
③①②口 |①---|
口③口④ |----②-|
口口④口 |③---|
口口口口 |④---|
6
口口口口 |①---|
口口口口 |②---|
①口口口 |③---|
③①口② |----|
7
②②①① |①---|
②口口① |②---|
④口口③ |③---|
④④③③ |④---|
8
③口口② |①---|
⑤①①④ |②-③-④-|
口①①口 |⑤---|
口⑥⑥口 |⑥---|
9
口④⑥口 |①---|
口⑤③口 |②---③-|
口②①口 |④---⑤-|
⑦口口口 |⑥---⑦-|
10
口口口口 |①---|
⑥⑤④⑥ |②-③-④-|
口③②口 |⑤---|
口口口① |⑥---|
11
①①①① |①---|
口口口口 |②-③-|
⑥⑦口口 |④-⑤-|
⑤④③② |⑥-⑦-|
12
⑦⑧口口 |①-②-|
⑥⑤④③ |③-④-|
口口①② |⑤-⑥-|
口口口口 |⑦-⑧-|
13
口口⑤④ |①-②-|
口口⑥③ |③-④-|
口口⑦② |⑤-⑥-|
口口⑧① |⑦-⑧-|
14
⑤④口口 |①-②-|
⑥③口口 |③-④-|
⑦②口口 |⑤-⑥-|
⑧①口口 |⑦-⑧-|
15
口口口⑤ |①-②③|
口口口① |④-⑤-|
口④③②
口口口①

⑧口⑨口
口⑦⑥⑨
口口口口 |⑥-⑦-|
口口口口 |⑧-⑨-|
16
⑥⑤口口 |--①-|
④口口口 |②-③-|
①④③口 |④---|
⑤①口② |⑤-⑥-|
17
口口口① |①-②③|
口④③② |④-⑤-|
口口口①
口口口⑤

口口口⑨
口口口口
口⑦⑥口 |⑥-⑦-|
⑧口口口 |⑧-⑨-|
18
口①④口 |--①-|
③⑤⑤② |②-③-|
①⑤⑤④ |④---|
口③②口 |⑤---|
19
⑧口口口 |①-②-|
⑥口口⑦ |③-④-|
④口口⑤ |⑤-⑥-|
②⑤③① |⑦-⑧-|
20
⑨口口① |①-②-|
⑦①口⑨ |③-④⑤|
④⑤⑥⑧ |⑥-⑦-|
②口口③ |⑧-⑨-|
21
⑧口①⑤ |①-②-|
⑥③口口 |③-④-|
④⑧⑤口 |⑤-⑥-|
②⑦③口 |⑦-⑧-|
22
口口①口 |①---|
口④口① |②-③-④-|
②口③口
口口口口

口⑥⑦⑤
口口⑤口
口口口口 |⑤---|
口口口口 |⑥-⑦-|
23
⑧口⑦口 |①-②-|
⑥口口① |③-④-|
④④口③ |⑤-⑥-|
②口⑤⑤ |⑦-⑧-|
24
口口口① |①-②③|
口口①口 |--④-|
④口口口
②③口口

口口口口
⑥⑦⑧⑤
口⑤口口 |⑤-⑥-|
口口口口 |⑦-⑧-|
25
②④③① |①---|
口口口口 |--②-|
口口口口 |③---|
②④③① |--④-|
26
④⑥⑤⑦ |①-②-|
口③⑦口 |③-④-|
口口②口 |--⑤-|
口⑥⑤① |⑥-⑦-|
27
⑦口口⑧ |①-②-|
⑤口⑦⑥ |③-④-|
③①④④ |⑤-⑥-|
①口口② |⑦-⑧-|
28
口口口⑨ |①-②-|
⑨①口⑦ |③-④⑤|
③⑥⑤④ |⑥-⑦-|
①⑧口② |⑧-⑨-|
29
③①口⑧ |①-②-|
口口③⑥ |③-④-|
⑦口⑤④ |⑤-⑥-|
⑤口⑦② |⑦-⑧-|
30
④⑤①⑥ |①---|
①口②口 |②-③-|
⑤④口③ |④---|
口②口口 |⑤-⑥-|
31
口⑦⑦⑧ |①-②-|
③①口⑥ |③-④-|
口⑤⑤④ |⑤-⑥-|
①③口② |⑦-⑧-|
32
⑧口口口 |①--②|
⑦①①口 |③-④-|
⑥⑤⑤④ |⑤-⑥-|
②③口口 |⑦-⑧-|
33
⑦⑤③① |①-②-|
口口③① |③-④-|
⑤⑦口口 |⑤-⑥-|
②④⑥⑧ |⑦-⑧-|
34
⑤口口④ |①-②-|
①②口口 |③-④-|
口口③④ |--⑤-|
①口⑦⑥ |⑥-⑦-|
35
口口②口 |①---|
口口①② |②---|
①②口口
口①口口

③③口口
③③⑤口
口口④④ |③---|
口口④④ |④---⑤-|
36
口口口② |①---②-|
⑤口口④ |③---④-|
③口口口 |⑤---|
①口口口 |----|
37
④①②③ |①---|
④②①③ |②---|
②⑤口① |③---|
④②①③ |④---⑤-|
38
口口⑤口 |①---②-|
口④③口 |③---④-|
②口口① |⑤---|
口口口口 |----|
39
①⑤口② |①---|
③③④④ |②---|
③①②④ |③---|
①④③② |④---⑤-|
40
⑤口口口 |①---②-|
口口口口 |③---④-|
口③④口 |⑤---|
①口口② |----|
41
④②①④ |①---|
②③③① |②---|
②⑤口① |③---|
口②①口 |④---⑤-|
42
⑩⑫⑪⑨ |①-②-③-|
⑧口口⑦ |④-⑤-⑥-|
⑥口口⑤ |⑦-⑧-⑨-|
④②①③ |⑩-⑪-⑫-|
43
⑦口口⑤ |①-②-|
口③①口 |③-④-|
口⑦⑤口 |⑤-⑥-|
⑧⑥④② |⑦-⑧-|
44
口⑤①口 |①-②-|
口③④⑦ |③-④-|
⑨口⑤① |⑤-⑥-|
⑧⑥④② |⑦-⑧⑨|
45
口口⑧口 |①-②-|
①口⑥口 |③-④⑤|
口③⑤⑧ |⑥-⑦-|
⑨⑦④② |⑧-⑨-|
46
⑤①⑦① |①-②-|
口口④③ |③-④-|
⑤口口口 |⑤-⑥-|
⑧⑥④② |⑦-⑧-|
47
⑥①口口 |①-②-|
①②③口 |③-④-|
口③④⑤ |⑤---|
⑥口⑤口 |⑥---|
48
口口①⑥ |①-②-|
口③②① |③-④-|
⑤④③口 |⑤---|
口⑤口⑥ |⑥---|
49
口⑤④口 |①-②-|
⑥口口③ |③-④-|
⑦口口② |⑤-⑥-|
口⑧①口 |⑦-⑧-|
50
口口④口 |①-②-|
口⑤⑥③ |③-④-|
口⑦⑧② |⑤-⑥-|
口口①口 |⑦-⑧-|
51
③①④② |①-②-|
口口口口 |----|
口口口口 |③-④-|
③①④② |----|
52
④②③① |①-②-|
口口口口 |----|
口口口口 |③-④-|
④②③① |----|
53
⑤①⑦③ |①-②-|
⑤①⑦③ |③-④-|
⑥②⑧④ |⑤-⑥-|
⑥②⑧④ |⑦-⑧-|
54
口①口② |①-②-|
口③⑦④ |③-④-|
⑧口口⑨ |⑤⑥-⑦|
⑤口口⑥ |-⑧⑨-|
55
①①口④ |①-②-|
①口口口 |③-④-|
口③④口
口口②口

口口口口
⑧⑤⑦口
口口口口 |⑤-⑥-|
⑤⑧口⑥ |⑦-⑧-|
56
④②①口 |①-②-|
口口口③ |③-④-|
②④口①
口口③口

口口口⑤
口口口口
口口⑤⑦ |⑤---|
口口口⑥ |⑥-⑦-|
57
⑤①口口 |①-②-|
①⑦⑧⑥ |③-④-|
口⑤④口 |⑤-⑥-|
⑦③②口 |⑦-⑧-|
58
⑤①口口 |①-②-|
③⑦⑥⑤ |③-④-|
①⑤④③ |⑤---|
口③②① |⑥-⑦-|
59
⑤⑤⑧④ |①-②-|
⑥⑦口⑧ |③-④-|
③口④口 |⑤-⑥-|
①口口② |⑦-⑧-|
60
口口口⑤ |①-②-|
口口④口 |③-④-|
口③口⑤ |⑤---|
①⑥⑦② |⑥-⑦-|
61
①②③④ |①-②-|
⑤⑥③④ |③-④-|
①②⑧⑧ |⑤-⑥-|
⑤⑥⑦⑦ |⑦-⑧-|
62
①①口口 |①---|
④③②口 |②---|
①①口口 |③---|
口口口口 |④---|
63
⑤口①① |①-②-|
⑧⑤⑥① |③-④-|
口②③口 |⑤-⑥-|
④⑧口⑦ |⑦-⑧-|
64
④②①⑤ |①-②-|
⑥⑦口③ |③-④-|
②④⑤① |⑤---|
口口③口 |⑥-⑦-|
65
⑧⑦⑥口 |①-②-|
⑧口①⑤ |③-④-|
④口口⑤ |⑤-⑥-|
②④口③ |⑦-⑧-|
66
口口口① |①-②-|
口口①口 |③-④⑤|
④⑤口口
②口口③

口口口口
口⑦⑧口
口口⑥口 |⑥---|
口口口口 |⑦-⑧-|
67
①口口口 |①---|
①口口口 |--②-|
⑥⑤口口 |③-④-|
①④③② |⑤-⑥-|
68
口①①① |①---|
口口①① |--②-|
口口口①
②口口口

口口口口
口口口口
口口⑤⑥ |③-④-|
口③④口 |⑤-⑥-|
69
①②③④ |①-②-|
⑤⑥③④ |③-④-|
①②⑧⑧ |⑤-⑥-|
⑤⑥⑦⑦ |⑦-⑧-|
70
①①③② |①---|
口④④③ |②---|
①①④口 |③---|
口口口口 |④---|
71
口口口口 |①---|
口口口口 |--②-|
①①口口
②①口口

口口口口
口口⑤口
口④③口 |----|
口口口口 |③-④-⑤-|
72
②口口② |①---|
口①⑤口 |②---|
口口口口 |③---|
③口④③ |④---⑤-|
73
口①口口 |①---|
③口口② |②-③-④-|
⑤口⑥④ |⑤---|
口口口口 |⑥---|
74
口口口口 |①---|
口⑤口口 |②---|
口①④口 |③---|
口③②口 |④-⑤-|
75
③⑦①② |①---|
⑦口⑥口 |②-③-|
口⑤口④ |④-⑤-|
口口④① |⑥-⑦-|
76
口口①口 |①---|
口③口口 |②-③-|
②口④口 |④---|
口⑤⑥① |⑤-⑥-|
77
⑦口口⑧ |①-②-③-|
⑤口口⑥ |④-⑤-⑥-|
③⑦⑧④ |⑦---|
①口口② |⑧---|
78
口①①口 |①---|
②①①口 |②---|
口③口口 |③---|
口口④口 |④---|
79
口口口② |①---|
口口③口 |②-③-|
口④口口 |④---|
口口⑤① |⑤---|
80
⑤①②口 |①-②-|
①③④口 |③-④-|
口⑤⑥口 |⑤-⑥-|
⑦口口⑧ |⑦-⑧-|
81
口②①① |①-②-|
④②⑤③ |③-④-|
口⑥口⑤ |⑤-⑥-|
⑥⑧⑦口 |⑦-⑧-|
82
口③②① |①-②-|
口③口④ |③-④-|
口口②口
口口口①

⑥口口⑩
⑦口⑩口
⑧⑩口⑤ |⑤--⑥⑦⑧|
⑨口⑥⑩ |⑨-⑩-|

不確定度: 0

最終更新:2014年07月27日 02:29