ジャパンパン~日本全国地元化計画~
C&K

EXTREME

Level: 9
BPM: 130
Notes: 750

1
口口口口 |----|
口口口口 |----|
口口口口 |----|
口口口口 |----|
2
①③口口 |①--②|
口④①口 |③-④-|
口口②口
口口口口

口口⑤⑦
口口⑥口
口⑤口口 |⑤--⑥|
口口口口 |⑦---|
3
口口口口 |①--②|
口②④① |③-④-|
口口①③
口口口口

口口口口
口口口口
口⑤⑥口 |⑤--⑥|
口口⑦⑤ |⑦---|
4
口口口口 |①--②|
口②①口 |③-④-|
口口④口
③①口口

口口口口
⑦口⑥口
⑤⑤口口 |⑤--⑥|
口口口口 |⑦---|
5
①③口口 |①--②|
口①④口 |③-④-|
口口②口
口口口口

口口⑤⑦
口⑦口口
口⑥口口 |⑤⑥--|
口口口口 |⑦---|
6
口口口口 |①--②|
口④①① |③-④-|
口口②③
口口口口

口口口口
口口⑥口
口⑤口口 |⑤--⑥|
口口⑦⑤ |⑦---|
7
口口口口 |①--②|
口②④口 |③-④-|
口口①口
③①口口

口口口口
⑦口口口
⑤⑤⑥口 |⑤--⑥|
口口口口 |⑦---|
8
①③口口 |①--②|
口②①口 |③-④-|
口口④口
口口口口

口口⑤⑦
口口⑥口
口⑤口口 |⑤--⑥|
口口口口 |⑦---|
9
①②口口 |①--②|
①②口口 |--③-|
⑤④③口 |-④--|
⑤④③⑥ |⑤-⑥-|
10
①①②② |①---|
①①②② |②---|
口③③⑤ |③---|
④③③口 |④-⑤-|
11
①口口⑤ |①-②-|
⑥口②口 |③-④-|
口③口⑦ |⑤-⑥-|
⑧口④口 |⑦-⑧-|
12
②口口口 |①---|
口①②① |②-③-|
①②①口
口③口②

口⑥口口
口⑤口口
口口⑤口 |④--⑤|
口口④口 |--⑥-|
13
②口①② |①-②-|
③口口③ |--③-|
④口口④ |--④-|
⑤口口⑤ |--⑤-|
14
①①②② |①---|
①①②② |②---|
口③③⑤ |③---|
④③③口 |④-⑤-|
15
①口口⑤ |①-②-|
⑥口②口 |③-④-|
口③口⑦ |⑤-⑥-|
⑧口④口 |⑦-⑧-|
16
②口口口 |①---|
口①②① |②-③-|
①②①口
口③口②

口⑥口口
口⑤口口
口口⑤口 |④--⑤|
口口④口 |--⑥-|
17
②口①② |①-②-|
③口口③ |--③-|
口口口口
口口口口

⑤口口口
口⑤口口
④口⑤④ |--④-|
口口口⑤ |⑤---|
18
口②①① |①-②③|
口口③口 |④-⑤-|
口口口口
口④⑤⑤

口口口⑧
⑥口⑧⑦
⑥⑧口⑦ |⑥-⑦-|
⑧口口口 |⑧---|
19
①①②口 |①-②③|
口③口口 |④-⑤-|
口口口口
⑤⑤④口

⑧口口口
⑦⑧口⑥
⑦口⑧⑥ |⑥-⑦-|
口口口⑧ |⑧---|
20
③①③① |①---|
口口①口 |②-③-|
口口口口
②口②口

口⑥口⑥
④口口口
口④口④ |④---|
口⑤口⑤ |⑤-⑥-|
21
③口③口 |①---|
口口口① |②-③-|
①口①口
②口②口

口口口口
④口口⑤
⑥④口④ |④---|
口口口口 |⑤-⑥-|
22
口③口口 |①--②|
口④①口 |③-④-|
口口②口
口口口①

口口⑤⑦
口口⑥口
口⑤口口 |⑤--⑥|
口口口口 |⑦---|
23
口口口口 |①-②③|
口口⑤① |④-⑤-|
⑤口①④
②③口口

⑩口口口
⑦⑧口口
口⑥⑧口 |⑥-⑦⑧|
口口⑨⑥ |⑨-⑩-|
24
口口②口 |①--②|
口口①口 |③-④-|
口口④口
③①口口

口口口口
⑦口⑥口
⑤⑤口口 |⑤--⑥|
口口口口 |⑦---|
25
①③口口 |①--②|
口①④口 |③-④-|
口口②口
口口口口

⑥口⑤⑥
口口口口
口口口口 |⑤--⑥|
口⑦口口 |--⑦-|
26
口②口口 |①--②|
口口口口 |--③-|
口口①③
口口③口

口口口口
口④口口
④⑤⑤口 |④---|
口口口口 |--⑤-|
27
口①②口 |①②-③|
③⑤④口 |-④-⑤|
口⑤口口
⑤口⑤口

口⑥⑦口
⑥口口⑦
口口口口 |----|
口口口口 |⑥-⑦-|
28
④⑥口⑤ |①--②|
⑥②③口 |--③-|
①③②① |④--⑤|
⑤①①④ |--⑥-|
29
口口①口 |①-②-|
口①②③ |③-④-|
①②③④
口③④口

⑧⑥⑦口
口⑧口口
口⑧口口 |⑤-⑥⑦|
口口口⑤ |--⑧-|
30
口口口① |①--②|
②口①② |--③-|
口口①③
③口口口

口口口口
口口口口
④⑤⑤口 |④---|
口口口④ |--⑤-|
31
口①②口 |①②-③|
③⑤④口 |-④-⑤|
⑦⑤口口 |----|
⑤口⑤⑥ |⑥-⑦-|
32
口口①① |①--②|
②②口口 |--③-|
④⑤口③ |④--⑤|
⑤④③口 |----|
33
口⑪⑪⑩ |①②③④|
⑨①④口 |⑤⑥⑦⑧|
口⑤②⑧ |⑨⑩-⑪|
⑦③⑥口 |----|
34
口口口口 |①②③④|
口⑧⑦⑥ |⑤⑥⑦⑧|
口⑤④口
口③②①

⑪口口⑩
⑨口口口
⑭⑬⑫口 |⑨⑩-⑪|
口口口口 |-⑫⑬⑭|
35
口②口口 |①-②-|
口④③口 |③④⑤⑥|
口⑥⑤口
口口①口

⑨口⑩⑦
口口口口
口口口口 |-⑦-⑧|
口口⑧口 |⑨-⑩-|
36
口口口口 |①②③④|
口⑧口⑤ |⑤⑥⑦⑧|
④⑥⑦③
②口口①

⑭⑩口⑪
⑬口⑨口
⑫口口口 |⑨⑩-⑪|
口口口口 |-⑫⑬⑭|
37
口②口口 |①-②-|
口④③口 |③④⑤⑥|
口⑥⑤口
口口口①

⑨口⑩⑦
口口口口
口口口口 |-⑦-⑧|
口口口⑧ |⑨-⑩-|
38
口④⑤⑨ |①-②-|
②⑩⑧① |③-④⑤|
②⑦⑪① |⑥⑦⑧⑨|
⑥③③⑫ |-⑩⑪⑫|
39
口口②口 |①-②-|
③口口④ |③④⑤⑥|
⑤口口⑥
口①口口

⑦口口⑨
口口口口
口口口口 |-⑦-⑧|
⑧⑩口口 |⑨-⑩-|
40
口口口口 |①---|
②口口① |②---|
①口口②
口口口口

⑤口口口
口口口④
⑤③③口 |③---|
口口口④ |④-⑤-|
41
口②①口 |①--②|
③口③口 |-③--|
口口口口
口①②口

口口⑤口
口⑥口口
口④⑦④ |④-⑤⑥|
口⑧口⑨ |⑦⑧⑨-|
42
①口口② |①-②-|
①③③② |③-④⑤|
口④口口
口口⑤口

⑧⑫口⑪
口口⑬口
⑩口⑦⑨ |⑥⑦⑧⑨|
口⑥口口 |⑩⑪⑫⑬|
43
④口⑥口 |①-②③|
⑪⑦⑧口 |④-⑤⑥|
⑤⑨⑩⑫ |⑦⑧⑨⑩|
①口③② |--⑪⑫|
44
口口口口 |①②--|
口④口⑤ |③-④⑤|
①③③口
口口口②

口⑧口⑨
口口口口
⑩口口⑩ |⑥⑦⑧⑨|
⑥口⑦口 |--⑩-|
45
④⑧⑤⑨ |①②--|
口①②口 |③-④⑤|
⑥口⑦口 |⑥⑦⑧⑨|
口③③口 |----|
46
口③③口 |①--②|
口①③③ |--③-|
口①②③
①口②口

口口口⑥
口口口口
⑤⑤⑤口 |-④--|
④⑤口口 |⑤-⑥-|
47
⑦⑦⑦口 |-①-②|
⑧③⑧② |③④⑤⑥|
⑨⑨⑥口 |⑦--⑧|
⑨⑤①④ |--⑨-|
48
口口口② |-①②-|
④③③⑤ |③-④⑤|
口口口口
口①口口

口口口口
口口口口
⑥⑩⑩⑦ |⑥⑦⑧⑨|
⑧⑩⑩⑨ |⑩---|
49
②⑥⑦③ |①②③④|
⑧口①⑤ |⑤⑥⑦⑧|
口⑩⑪口 |⑨⑩⑪⑫|
④⑫⑨⑬ |--⑬-|
50
①①②② |①---|
①①②② |②---|
口③③⑤ |③---|
④③③口 |④-⑤-|
51
①口口⑤ |①-②-|
⑥口②口 |③-④-|
口③口⑦ |⑤-⑥-|
⑧口④口 |⑦-⑧-|
52
②口口口 |①---|
口①②① |②-③-|
①②①口
口③口②

口⑥口口
口⑤口口
口口⑤口 |④--⑤|
口口④口 |--⑥-|
53
②口①② |①-②-|
③口口③ |--③-|
④口口④ |--④-|
⑤口口⑤ |--⑤-|
54
①①②② |①---|
①①②② |②---|
口③③⑤ |③---|
④③③口 |④-⑤-|
55
①口口⑤ |①-②-|
⑥口②口 |③-④-|
口③口⑦ |⑤-⑥-|
⑧口④口 |⑦-⑧-|
56
②口口口 |①---|
口①②① |②-③-|
①②①口
口③口②

口⑥口口
口⑤口口
口口⑤口 |④--⑤|
口口④口 |--⑥-|
57
②口①② |①-②-|
③口口③ |--③-|
口口口口
口口口口

⑤口口口
口⑤口口
④口⑤④ |--④-|
口口口⑤ |⑤---|
58
口②①① |①-②③|
口口③口 |④-⑤-|
口口口口
口④⑤⑤

口口口⑧
⑥口⑧⑦
⑥⑧口⑦ |⑥-⑦-|
⑧口口口 |⑧---|
59
①①②口 |①-②③|
口③口口 |④-⑤-|
口口口口
⑤⑤④口

⑧口口口
⑦⑧口⑥
⑦口⑧⑥ |⑥-⑦-|
口口口⑧ |⑧---|
60
③①③① |①---|
口口①口 |②-③-|
口口口口
②口②口

口⑥口⑥
④口口口
口④口④ |④---|
口⑤口⑤ |⑤-⑥-|
61
③口③口 |①---|
口口口① |②-③-|
①口①口
②口②口

口口口口
④口口⑤
⑥④口④ |④---|
口口口口 |⑤-⑥-|
62
口③口口 |①--②|
口④①口 |③-④-|
口口②口
口口口①

口口⑤⑦
口口⑥口
口⑤口口 |⑤--⑥|
口口口口 |⑦---|
63
口口口口 |①-②③|
口口⑤① |④-⑤-|
⑤口①④
②③口口

⑩口口口
⑦⑧口口
口⑥⑧口 |⑥-⑦⑧|
口口⑨⑥ |⑨-⑩-|
64
口口②口 |①--②|
口口①口 |③-④-|
口口④口
③①口口

口口口口
⑦口⑥口
⑤⑤口口 |⑤--⑥|
口口口口 |⑦---|
65
①③口口 |①--②|
⑥①④⑥ |③-④-|
口⑤②口 |⑤--⑥|
口口口口 |----|
66
口①①① |①---|
口口①口 |----|
①口①口 |----|
口①口口 |----|

不確定度: 0

最終更新:2014年08月01日 23:59