カタルシスの月
日向美ビタースイーツ♪

EXTREME

Level: 9
BPM: 200
Notes: 745

1
口口口口 |----|
口口口口 |----|
口口口口 |----|
口口口口 |----|
2
口③④② |①---|
口口①④ |②---|
④①口口 |③---|
②④③口 |④---|
3
②口④口 |①---|
口③口④ |②---|
④口③① |③---|
口④口② |④---|
4
口③④口 |①---|
口口口④ |②---|
④口口① |③---|
口④③② |④---|
5
口③④口 |①---|
口口②④ |②---|
④②口① |③---|
口④③口 |④---|
6
口口⑤② |①---|
⑤口③口 |②---|
口④口⑤ |③-④-|
口⑤口① |⑤---|
7
②⑤口口 |①---|
口③口⑤ |②---|
⑤口④口 |③-④-|
①口⑤口 |⑤---|
8
口⑥③口 |①-②-|
口④①口 |③---|
⑥②⑤③ |④-⑤-|
口口口口 |⑥---|
9
②口口口 |①---|
④口⑦口 |②-③-|
口⑥口⑤ |④-⑤-|
⑧①①③ |⑥-⑦⑧|
10
②④③口 |①---|
④①口口 |②---|
口口①④ |③---|
口③④② |④---|
11
口④口② |①---|
④口③口 |②---|
①③口④ |③---|
②口④口 |④---|
12
口④③口 |①---|
④口口口 |②---|
①口口④ |③---|
②③④口 |④---|
13
口④③口 |①---|
④②口口 |②---|
①口②④ |③---|
口③④口 |④---|
14
口②①② |----|
口①②① |----|
口②①② |①---|
口口口口 |②---|
15
口口口口 |----|
②①②口 |----|
①②①口 |①---|
②①②口 |②---|
16
口口口口 |----|
口口口口 |----|
口口口口 |----|
口口口口 |----|
17
口口①口 |①---|
口口口① |----|
①口口① |②---|
②①①② |----|
18
①口口① |①---|
口④③口 |----|
口②②口 |②---|
口口口口 |③-④-|
19
口口口口 |----|
口②③口 |----|
口①①口 |①---|
口口口口 |②-③-|
20
口口口口 |----|
①口口② |①---|
③口口口 |②---|
口口口口 |③---|
21
口口口口 |①---|
口口⑤口 |②---|
口④口① |③---|
②口口③ |④-⑤-|
22
口口口口 |----|
口口口口 |----|
口口口② |①---|
口口口① |②---|
23
①口口口 |①---|
②口口口 |②---|
口口口④ |③---|
口口口③ |④---|
24
口口口口 |----|
口①口口 |----|
口口①口 |①---|
口口口口 |----|
25
口口口口 |①---|
口口①口 |----|
口①口口 |②---|
②②②② |----|
26
①①①① |①---|
⑥⑤⑤⑥ |②---|
④②口口 |③-④-|
口口口③ |⑤-⑥-|
27
③口③口 |①---|
口⑤口⑤ |②---|
④口口口 |③-④-|
口②①⑥ |⑤-⑥-|
28
口①⑥① |①-②-|
③⑧③口 |③-④-|
口⑤②⑤ |⑤-⑥-|
⑦④⑦口 |⑦-⑧-|
29
④口⑧⑧ |①-②-|
口口⑤③ |③-④-|
②⑥口口 |⑤-⑥-|
⑧⑧⑦① |⑦-⑧-|
30
①口口③ |----|
②③②① |①---|
①②③② |②---|
③口口① |③---|
31
口②②口 |①---|
口口④③ |②---|
⑥⑤口口 |③-④-|
口①①口 |⑤-⑥-|
32
口③⑥口 |①-②-|
③口口⑥ |③---|
口⑤②口 |④-⑤-|
④口口① |⑥---|
33
①口口① |①-②-|
口③②口 |③-④⑤|
⑦口④⑥ |⑥-⑦-|
⑨⑤口⑧ |⑧-⑨-|
34
①①③③ |①---|
口②口口 |----|
口口口口 |②---|
口口口口 |--③-|
35
口口口口 |----|
口口口口 |----|
口口口口 |----|
口口②① |①-②-|
36
口口口口 |①---|
口口口口 |②-③-|
②③⑤④ |--④-|
口①⑤④ |--⑤-|
37
口口口口 |----|
口口②② |①---|
①②口口 |②---|
口②口口 |----|
38
③③口① |①---|
①②口口 |----|
口口口① |②---|
①口口口 |--③-|
39
口口口口 |----|
口口口口 |----|
口口口口 |----|
①②口口 |①-②-|
40
口口口口 |①---|
口口口口 |②-③-|
④⑤③② |--④-|
④⑤①口 |--⑤-|
41
口口口口 |----|
口①口口 |----|
口口①口 |①---|
口口口口 |----|
42
口口①口 |①---|
①口②口 |②---|
口口口①
口①口口

口⑤口③
⑤口口③
③④口⑤ |③---|
③口⑤口 |④-⑤-|
43
①口②口 |--①-|
口③口口 |②-③-|
口口④⑦ |④-⑤-|
口⑤口⑥ |⑥-⑦-|
44
口①口② |①---|
口③①口 |②-③-|
口①③口
②口①口

口口口口
口口⑤④
④⑤口口 |--④-|
口口口口 |--⑤-|
45
口⑥③① |--①-|
④②口⑤ |②-③-|
口⑥口口 |④-⑤-|
口口口口 |⑥---|
46
口口④口 |①---|
口⑤⑤④ |②-③-|
①口③⑥ |④---|
①②口⑥ |⑤-⑥-|
47
口④口口 |--①-|
④⑤⑤口 |②-③-|
口③口口 |④---|
口①②口 |⑤---|
48
口口④口 |①---|
口⑤⑤④ |②-③-|
①口③⑥ |④---|
①②口⑥ |⑤-⑥-|
49
口④口口 |--①-|
④口口口 |②-③-|
口③⑤口 |④-⑤-|
口①②口 |----|
50
口⑦④① |①-②-|
口⑦④① |③-④-|
②⑤⑧口 |⑤-⑥-|
口口⑥③ |⑦-⑧-|
51
②⑫⑨⑤ |①-②-|
②⑧口口 |③-④-|
⑩⑥口③ |⑤⑥⑦⑧|
④①⑪⑦ |⑨⑩⑪⑫|
52
口口口口 |①---|
口口①① |----|
口口口口
口口口口

口口口口
②口口②
②口口② |----|
口口口口 |--②-|
53
口口口口 |----|
②①①② |----|
②①①② |①---|
口口口口 |--②-|
54
②口⑦③ |--①-|
口⑥口⑦ |②-③-|
⑦④⑥口 |④-⑤-|
口⑦⑤① |⑥-⑦-|
55
口⑥口② |--①-|
③口④口 |②-③-|
口④口⑤ |④---|
①口⑥口 |⑤-⑥-|
56
①口⑤⑤ |--①-|
③②口① |②---|
①口②④ |③-④-|
⑤⑤口① |⑤---|
57
①②⑥⑤ |①---|
④④①⑥ |②-③-|
⑥①④④ |④---|
⑤⑥③① |⑤-⑥-|
58
口①⑥口 |--①-|
口③②口 |②-③-|
口⑤④口 |④-⑤-|
口⑥口口 |⑥---|
59
口⑤口① |①-②-|
⑦④③口 |③-④-|
②⑤⑥① |⑤-⑥-|
⑦口③⑧ |⑦-⑧-|
60
⑥⑥①⑤ |①---|
口③④① |②-③-|
①④口② |④---|
⑤①⑥⑥ |⑤-⑥-|
61
⑪⑪①⑨ |----|
⑧⑩⑤③ |①②③④|
②④口⑦ |⑤⑥⑦⑧|
口⑥⑪⑪ |⑨⑩⑪-|
62
⑥⑦②口 |--①-|
口口④⑦ |②-③-|
⑦⑤①口 |④-⑤-|
③口⑦⑥ |⑥-⑦-|
63
口口口口 |--①-|
①②④⑥ |②-③-|
⑥④口③ |④---|
口口口⑤ |⑤-⑥-|
64
口①口② |--①-|
口①口⑤ |②---|
⑤口①④ |③-④-|
口③①口 |⑤---|
65
①②口口 |①---|
③①口口 |②-③-|
口口①口
口口口①

⑥口④口
口口口⑥
⑥⑤口口 |④---|
口④口⑥ |⑤-⑥-|
66
口口⑤② |--①-|
③口口口 |②-③-|
口⑦①④ |④-⑤-|
口⑥口口 |⑥-⑦-|
67
口口口口 |①---|
③⑤④① |②-③-|
口口②口 |--④-|
口口口口 |⑤---|
68
②口①口 |①-②-|
口口口① |--③-|
①口③①
③①①②

口④口④
⑥口⑤口
口⑤口⑥ |④---|
口口口口 |⑤-⑥-|
69
①⑩③口 |--①-|
口⑥⑨① |②---|
口⑧⑤口 |③④⑤⑥|
④②②⑦ |⑦⑧⑨⑩|
70
口口口口 |①---|
①口口① |②-③-|
①⑥⑦① |④-⑤-|
④②③⑤ |⑥-⑦-|
71
③口口① |①-②-|
⑦②④⑤ |③-④-|
③⑥⑧① |⑤-⑥-|
⑦口口⑤ |⑦-⑧-|
72
③⑤①② |①-②-|
口口④口 |③-④-|
口⑧口口 |⑤-⑥-|
⑥①⑤⑦ |⑦-⑧-|
73
口⑤⑦② |①-②-|
①口⑧口 |③-④-|
③⑧口① |⑤-⑥-|
口⑦④⑥ |⑦-⑧-|
74
口③④② |①---|
③①④② |②---|
②④①③ |③---|
②④③口 |④---|
75
①口口口 |①---|
口①口口 |----|
口口①口 |----|
口口口① |----|
76
②④③口 |①---|
④①口口 |②---|
口口①④ |③---|
口③④② |④---|
77
口④口② |①---|
④口③口 |②---|
①③口④ |③---|
②口④口 |④---|
78
口④③口 |①---|
④口口口 |②---|
①口口④ |③---|
②③④口 |④---|
79
口④③口 |①---|
④②口口 |②---|
①口②④ |③---|
口③④口 |④---|
80
②⑤口口 |①---|
口③口⑤ |②---|
⑤口④口 |③-④-|
①口⑤口 |⑤---|
81
口口⑤② |①---|
⑤口③口 |②---|
口④口⑤ |③-④-|
口⑤口① |⑤---|
82
口③⑥口 |①-②-|
口①④口 |③---|
③⑤②⑥ |④-⑤-|
口口口口 |⑥---|
83
口口口② |①---|
口⑦口④ |②-③-|
⑤口⑥口 |④-⑤-|
③①①⑧ |⑥-⑦⑧|
84
口③④② |①---|
口口①④ |②---|
④①口口 |③---|
②④③口 |④---|
85
②口④口 |①---|
口③口④ |②---|
④口③① |③---|
口④口② |④---|
86
口③④口 |①---|
口口口④ |②---|
④口口① |③---|
口④③② |④---|
87
口③口④ |①---|
口口②口 |②---|
口②口① |③---|
④口③口 |④---|
88
口②①② |----|
口①②① |----|
口②①② |①---|
口口口口 |②---|
89
口口①口 |----|
口口口① |----|
口口口② |①---|
口口②口 |②---|
90
口口口口 |①---|
口口口口 |----|
①口口口 |----|
口①口口 |----|


不確定度: 0

最終更新:2013年12月29日 20:56