Lisa-RICCIA
DJ YOSHITAKA

EXTREME

Level: 10
BPM: 205
Notes: 1023

1
口口口口 |----|
口口口口 |----|
口口口口 |----|
口口口口 |----|
2
②口口② |----|
口①口口 |----|
②口口② |--①-|
口口口口 |②---|
3
⑤⑤口口 |①---|
②口口③ |②-③-|
口①①口 |--④-|
④④口口 |--⑤-|
4
口口②④ |--①-|
⑤口口⑥ |②-③-|
口口①③ |④--⑤|
口口口口 |--⑥-|
5
口③⑤⑤ |①---|
口口口口 |②-③-|
①口口口 |--④-|
口②④④ |--⑤-|
6
口口口⑥ |--①-|
②④口口 |②-③-|
①③口口 |④--⑤|
口口口⑤ |--⑥-|
7
①①③口 |①---|
⑤⑤口口 |②-③-|
口口口口 |--④-|
④④②口 |--⑤-|
8
⑥⑥③① |--①-|
口口⑤口 |②-③-|
口口④② |④-⑤-|
口口口口 |--⑥-|
9
口口①口 |----|
①①①① |----|
口口①口 |----|
口口①口 |-①--|
10
口口口口 |----|
口口口口 |----|
口口口口 |----|
口口口口 |----|
11
口口①口 |①---|
口①口① |----|
口口①口 |----|
口口口口 |----|
12
口口②③ |--①-|
口口口口 |----|
口口②③ |②---|
①口口① |③---|
13
口口口口 |①---|
②口口② |②---|
口口口口 |----|
口①①口 |----|
14
④口⑤口 |--①②③---|
④④⑤⑤ |--④-|
⑥①②③ |⑤--⑥|
⑥⑥⑦③ |--⑦-|
15
口①口① |①---|
口口③口 |②---|
口口②② |----|
口口口口 |③---|
16
口口①口 |----|
口①②① |①---|
③口①口 |----|
口口口口 |②-③-|
17
①口②口 |①---|
④②③② |--②-|
口口②口 |----|
口口④口 |③-④-|
18
口①口① |--①-|
口⑤⑥④ |------②③|
口①③① |④-⑤-|
⑦②口口 |⑥-⑦-|
19
④口口② |①---|
③口口口 |②---|
④口口② |③---|
口口口① |④---|
20
口③②④ |①---|
⑤口①⑥ |②---|
口③②④ |③-④-|
⑤口口⑥ |⑤-⑥-|
21
口口④口 |①---|
口②③口 |②---|
①口④口 |③---|
口②口口 |④---|
22
②⑦口⑥ |①---|
①③④⑤ |②-----③④|
②⑦口⑥ |⑤-⑥-|
口口口口 |--⑦-|
23
②口①口 |①---|
②③口口 |②---|
②口①口 |----|
口口口口 |③---|
24
口口口口 |----|
口口①口 |①---|
口口②口 |----|
口③口口 |②-③-|
25
口口口口 |①---|
口②④口 |--②-|
口①③口 |----|
口口④口 |③-④-|
26
口口口口 |--①-|
④口口① |----|
②口口① |--②-|
②③口① |③-④-|
27
④②口③ |①---|
口②⑤③ |②-③-|
口④①口 |--④-|
口口①⑤ |--⑤-|
28
⑥口②④ |--①-|
③⑤⑥⑤ |②-③-|
①⑥②④ |④--⑤|
⑤口⑤⑥ |--⑥-|
29
口①②④ |①---|
⑤⑦口⑦ |②-③-|
③口②④ |④-⑤-|
⑥①⑥口 |⑥-⑦-|
30
⑤口④⑤ |--①-|
口⑥②⑥ |②-③-|
③⑤⑤④ |④--⑤|
⑥①⑥② |--⑥-|
31
口①④⑥ |①---|
①⑦②口 |②-③-|
⑤口⑥④ |④-⑤-|
⑦③口② |⑥-⑦-|
32
⑤②⑤口 |--①-|
③口口② |②-③-|
⑥①口⑥ |④-⑤-|
口口④④ |--⑥-|
33
⑤口口② |--①-|
③⑦②④ |②-③-|
口口④口 |④-⑤-|
①口⑥⑥ |⑥-⑦-|
34
⑥③①③ |①-②-|
⑥口⑤⑦ |③---|
④口⑤① |④-⑤-|
④②口⑦ |⑥-⑦-|
35
口②口② |①---|
口⑤口⑤ |②-③-|
④①④① |--④-|
口③③口 |--⑤-|
36
③⑤④⑤ |--①-|
⑥口②⑥ |②-③-|
⑤口⑤④ |④--⑤|
①⑥⑥② |--⑥-|
37
⑦口④⑥ |①---|
口①②口 |②-③-|
⑤①⑥④ |④-⑤-|
③口口② |⑥-⑦-|
38
口⑤⑤⑥ |--①-|
③⑥④② |②-③-|
⑤①⑥⑤ |④--⑤|
⑥口④② |--⑥-|
39
①⑦⑥口 |①---|
⑤口④② |②-③-|
⑦③口⑥ |④-⑤-|
口①④② |⑥-⑦-|
40
③口⑥② |--①-|
口②④⑤ |②-③-|
口口①⑥ |④-⑤-|
①口④⑤ |--⑥-|
41
口口口② |--①-|
③⑤⑤口 |②-③-|
①⑥②⑥ |④-⑤-|
口④④口 |--⑥-|
42
①口口口 |--①-|
③口口④ |②---|
②口口口 |--③-|
⑤口口④ |④-⑤-|
43
⑤口①⑤ |①---|
口①③口 |②-③-|
②④①④ |--④-|
口①③口 |--⑤-|
44
口⑦④口 |①-②-|
③①⑥② |③-④-|
⑤⑧④⑧ |⑤-⑥-|
口口⑥② |⑦-⑧-|
45
①口⑤① |①---|
③口口③ |②-③-|
④口口口 |--④-|
⑤②口④ |--⑤-|
46
①④口② |--①-|
③口口⑥ |--②-|
口⑤口① |③-④-|
⑥②④口 |⑤-⑥-|
47
③口⑥④ |①-②-|
⑤⑦①⑧ |③-④-|
②口⑥④ |⑤-⑥-|
口口⑧① |⑦-⑧-|
48
④口⑦④ |①-②-|
⑥口②口 |③-④-|
⑤口⑦⑤ |--⑤-|
①③口② |⑥-⑦-|
49
⑤⑦口⑦ |①-②-|
⑧①④① |③-④-|
⑥③口⑥ |⑤-⑥-|
②口④口 |⑦-⑧-|
50
口口口口 |----|
口口口口 |----|
口口口口 |----|
口口口① |①---|
51
口①口口 |①---|
①①①① |----|
口①口口 |----|
口①口口 |----|
52
③②③口 |--①-|
②①②口 |----|
③②③口 |②---|
口口口口 |③---|
53
口口口口 |①---|
口②口① |②---|
口口口口 |----|
口①口口 |----|
54
②口③口 |--①-|
口口口口 |--②-|
②口③① |③--④|
④口①⑤ |--⑤-|
55
口②口口 |①---|
②①②② |②---|
口②口口 |----|
③②③口 |③---|
56
①口①口 |----|
口③③口 |①---|
口②②口 |----|
口③③口 |②-③-|
57
⑤口⑨① |①②③④|
⑥口⑩② |--⑤⑥|
⑦口⑪③ |⑦⑧--|
⑧口⑫④ |⑨⑩⑪⑫|
58
⑨①口⑤ |--①②|
口②口⑥ |③④--|
口③口⑦ |⑤⑥⑦⑧|
口④口⑧ |--⑨-|
59
口⑤①⑨ |①②③④|
②⑩⑥口 |--⑤⑥|
③⑪⑦口 |⑦⑧--|
④⑫⑧口 |⑨⑩⑪⑫|
60
①⑨⑤口 |--①②|
⑥口口② |③④--|
⑦口口③ |⑤⑥⑦⑧|
⑧口口④ |--⑨-|
61
⑤口⑨① |①②③④|
⑩口②⑥ |--⑤⑥|
⑪口③⑦ |⑦⑧--|
⑫口④⑧ |⑨⑩⑪⑫|
62
⑨⑤口① |--①②|
口口②⑥ |③④--|
口口③⑦ |⑤⑥⑦⑧|
口口④⑧ |--⑨-|
63
口⑨①⑤ |①②③④|
口②⑥⑩ |--⑤⑥|
口③⑦⑪ |⑦⑧--|
口④⑧⑫ |⑨⑩⑪⑫|
64
①口⑤⑨ |--①②|
⑥②口口 |③④--|
⑦③口口 |⑤⑥⑦⑧|
⑧④口口 |--⑨-|
65
口口口口 |①---|
③②②④ |--②-|
口口①口 |----|
③口口④ |③-④-|
66
口①①③ |--①-|
③②②口 |----|
口口口③ |--②-|
③口口口 |③---|
67
②④口⑦ |①---|
口口口口 |②-③-|
③⑤口⑥ |④-⑤-|
口①①口 |⑥-⑦-|
68
口口口口 |----|
口①①口 |----|
口口口口 |①---|
口口口口 |----|
69
②口口⑦ |①---|
④口口口 |②-③-|
③口口⑥ |④-⑤-|
⑤①①口 |⑥-⑦-|
70
口口口口 |----|
口②②口 |--①-|
口①①口 |②---|
口口口口 |----|
71
⑤口口⑤ |①---|
②口口③ |②-③-|
口口口口 |--④-|
④①①④ |--⑤-|
72
口口口口 |----|
口①②口 |----|
③口口③ |①-②-|
口口口口 |--③-|
73
口口①口 |--①-|
②口口③ |②-③-|
口④⑤口 |④-⑤-|
⑥口口⑦ |⑥-⑦-|
74
①口口① |----|
口口口口 |----|
口口口口 |①---|
口口口口 |----|
75
⑧口⑤口 |①-②-|
④口③② |③-④-|
③①④⑦ |⑤-⑥-|
⑥①⑧⑥ |⑦-⑧-|
76
口⑨⑤① |①-②-|
⑦③③② |③-④-|
④⑤④⑧ |⑤-⑥⑦|
口②⑨⑥ |⑧-⑨-|
77
①口⑤① |①-②-|
⑥③③② |③-④-|
④口④⑦ |⑤-⑥-|
⑧口⑧⑥ |⑦-⑧-|
78
⑤口⑦① |①-②-|
口⑥③② |③-④-|
口⑦⑥口 |⑤--⑥|
口④口口 |--⑦-|
79
⑬①⑯⑭ |①②③④|
⑨⑪⑩② |⑤⑥⑦⑧|
③⑮⑫④ |⑨⑩⑪⑫|
⑤⑦⑥⑧ |⑬⑭⑮⑯|
80
口①口口 |①②③④|
⑨⑩⑩② |⑤⑥⑦⑧|
③⑪⑪④ |⑨-⑩-|
⑤⑦⑥⑧ |--⑪-|
81
①②③④ |①②③④|
⑫⑬⑭⑤ |⑤⑥⑦⑧|
⑪⑯⑮⑥ |⑨⑩⑪⑫|
⑩⑨⑧⑦ |⑬⑭⑮⑯|
82
①②③④ |①②③④|
⑫⑬⑭⑤ |⑤⑥⑦⑧|
⑪⑯⑮⑥ |⑨⑩⑪⑫|
⑩⑨⑧⑦ |⑬⑭⑮⑯|
83
①①口口 |①---|
口⑦⑥口 |②-③-|
⑤口口② |④-⑤-|
④口口③ |⑥-⑦-|
84
③②③口 |--①-|
③口③口 |②---|
口①口口 |----|
口口口口 |③---|
85
口⑥口⑦ |①-②-|
口口口⑤ |③-④-|
口③①② |--⑤-|
口口①④ |⑥-⑦-|
86
口口口口 |-①②-|
①②⑨⑨ |③④⑤-|
⑥⑦⑤④ |⑥⑦-⑧|
口③⑧⑧ |--⑨-|
87
①②⑤⑥ |①②③④|
③④⑫⑪ |⑤⑥⑦-|
⑨⑩口口 |--⑧-|
⑧⑦口⑧ |⑨⑩⑪⑫|
88
①②⑤⑤ |-①②-|
④口⑧⑧ |③-④-|
⑦口⑥⑥ |⑤--⑥|
口口③口 |-⑦⑧-|
89
③④⑦⑦ |①②-③|
⑨口口⑪ |④⑤⑥-|
⑩口⑧⑫ |⑦-⑧-|
①②⑥⑤ |⑨⑩⑪⑫|
90
①②口口 |--①②|
⑨⑥⑦⑨ |③④⑤-|
口口⑧口 |⑥⑦⑧-|
口⑤④③ |--⑨-|
91
⑤⑥④③ |①②③④|
⑪⑨口口 |⑤⑥⑦-|
①口口⑦ |⑧-⑨-|
②⑧⑩口 |⑩-⑪-|
92
⑪⑥⑨④ |①②③④|
口⑫⑩⑤ |⑤⑥-⑦|
②⑦⑬口 |⑧⑨⑩-|
③⑧口① |⑪⑫⑬-|
93
口⑥口⑥ |①②③④|
②口⑦⑦ |⑤-⑥-|
①⑧⑨④ |--⑦-|
⑤口⑨③ |⑧-⑨-|
94
⑦口⑥⑥ |-①②-|
②①⑧⑧ |③④⑤-|
⑤口⑨③ |⑥⑦-⑧|
④口⑨③ |--⑨-|
95
口①口口 |①②③④|
⑦②口口 |⑤⑥⑦-|
口③口⑥
口④口⑤

⑫⑬⑧⑧
口口⑪⑩
⑨口口口 |⑧-⑨-|
口口口口 |⑩⑪⑫⑬|
96
口口⑤⑤ |-①②-|
⑤⑦⑦⑦ |③-④-|
口⑥⑥⑥ |⑤--⑥|
①②④③ |--⑦-|
97
③④⑦⑦ |①②-③|
⑧⑫口⑪ |④⑤⑥-|
②口⑨⑨ |⑦-⑧-|
①⑩⑥⑤ |⑨⑩⑪⑫|
98
⑤口⑥⑥ |--①②|
⑦口⑧口 |③④⑤-|
①②⑨⑨ |⑥⑦⑧-|
口口④③ |--⑨-|
99
口①⑧⑧ |①②③④|
⑨②口③ |⑤⑥⑦-|
⑤口⑪⑪ |⑧-⑨-|
⑥⑩⑦④ |⑩-⑪-|
100
④②口④ |--①-|
④③③④ |②---|
口①口口 |--③-|
口口口口 |④---|
101
⑤口⑤⑤ |①---|
口口④口 |②-③-|
②③③③ |--④-|
④①①④ |--⑤-|
102
⑧口口⑧ |①-②-|
①口口② |③-④-|
③⑤口④ |⑤-⑥-|
口⑦口⑥ |⑦-⑧-|
103
口①①口 |①---|
②③③③ |②-③-|
口④④④ |--④-|
口⑤⑤⑤ |--⑤-|
104
③①①① |--①-|
⑤②②② |--②-|
口④④④ |③-④-|
⑥口口⑥ |⑤-⑥-|
105
口③④④ |①-②-|
口⑤⑥⑥ |③-④-|
②⑦⑧⑧ |⑤-⑥-|
口口①口 |⑦-⑧-|
106
口口④④ |①-②-|
⑤⑤⑤⑤ |③-④-|
③⑥口⑦ |--⑤-|
①口②② |⑥-⑦-|
107
②③⑦口 |①-②-|
⑥口⑥口 |③-④-|
⑤⑧①⑧ |⑤-⑥-|
④①④④ |⑦-⑧-|
108
口口口口 |----|
口口①口 |----|
口口口口 |----|
口口口口 |①---|
109
口③①② |①-②-|
①①口① |③-④-|
⑥口①口 |--⑤-|
⑤口①④ |--⑥-|
110
口口①口 |--①-|
口②口口 |--②-|
口口③口 |--③-|
⑤④口口 |④-⑤-|


不確定度: 0

最終更新:2014年05月04日 22:20