VALLIS-NERIA
DJ YOSHITAKA

EXTREME

Level: 10
BPM: 185
Notes: 911

1
口口口口 |----|
口口口口 |----|
口口口口 |----|
口口口口 |----|
2
口口②② |①---|
④口③⑤ |②---|
口口③口 |③---|
口口①① |④-⑤-|
3
②②口口 |--①-|
⑤口口④ |--②-|
③口口口 |--③-|
①①口口 |④-⑤-|
4
⑤⑤①① |①---|
口口口口 |②---|
③口口④ |③-④-|
口口②② |--⑤-|
5
口口②② |--①-|
④口口口 |--②-|
口口口口 |--③-|
①①③③ |--④-|
6
口口口⑥ |①---|
口⑤④① |②---|
③口口口 |③-④-|
②②口口 |⑤-⑥-|
7
②②④④ |--①-|
口口口口 |--②-|
口口口口 |--③-|
①①③③ |--④-|
8
口口口口 |--①-|
①口口② |②---|
①口口② |----|
口口口口 |----|
9
口口口口 |----|
口口口口 |----|
口口口口 |----|
口口口口 |----|
10
口口口口 |①-②-|
⑧口口① |③-④-|
⑦口口② |⑤-⑥-|
⑥⑤④③ |⑦-⑧-|
11
①②③④ |①-②-|
口口口⑤ |③-④-|
口口⑦⑥ |⑤-⑥-|
口口⑧⑦ |⑦-⑧-|
12
⑤⑥⑦⑧ |①-②-|
④③口口 |③-④-|
③①口口 |⑤-⑥-|
②①口口 |⑦-⑧-|
13
口口口口 |①-②-|
⑩⑪⑧① |③-④-|
⑨⑦⑫② |⑤--⑥⑦⑧|
⑥⑤④③ |⑨--⑩⑪⑫|
14
①②③④ |①-②-|
口口口⑤ |③-④-|
口口口⑥ |⑤-⑥-|
口口⑧⑦ |⑦-⑧-|
15
⑤⑥⑦⑧ |①-②-|
④口口口 |③-④-|
③口口口 |⑤-⑥-|
②①口口 |⑦-⑧-|
16
口口口口 |①-②-|
⑧口口① |③-④-|
⑦口口② |⑤-⑥-|
⑥⑤④③ |⑦-⑧-|
17
①①口③ |①-②③|
口④②⑤ |-④-⑤|
口口口③
口④口⑤

口口口口
⑦口⑧口
口⑥口口 |----|
口口口口 |⑥⑦-⑧|
18
口①⑨⑨ |①-②③|
口⑧口口 |④-⑤-|
③口⑦② |⑥-⑦-|
④⑥口⑤ |⑧-⑨-|
19
①①⑦口 |--①-|
口⑥⑤口 |--②-|
口口④口 |③-④⑤|
口③②② |⑥-⑦-|
20
③口口⑤ |①---|
口口⑤① |②-③-|
口口④① |--④-|
②口口④ |--⑤-|
21
口①⑤口 |--①-|
①⑤口口 |--②-|
口③口② |--③-|
③④②口 |④-⑤-|
22
⑥①口⑦ |①-②③|
③口口② |④-⑤-|
④口⑨口 |⑥-⑦-|
⑧口⑤⑨ |⑧-⑨-|
23
②①口口 |--①-|
②口③口 |----|
口④口口 |②-③-|
口口⑤⑤ |④-⑤-|
24
口口③② |--①-|
口口⑤口 |②---|
口口口① |--③-|
口④口口 |④-⑤-|
25
⑨口口口 |①-②-|
口口⑧口 |③-④-|
③①②④ |⑤-⑥⑦|
⑤⑦口⑥ |⑧-⑨-|
26
⑨①①⑨ |①-②③|
③口口② |④-⑤-|
④⑥⑦口 |⑥-⑦-|
⑧口⑤⑧ |⑧-⑨-|
27
口②②⑥ |--①-|
②口④② |--②-|
①⑤⑥① |③-④-|
口③③口 |⑤-⑥-|
28
①口口口 |①---|
③口口③ |--②-|
④口口④ |----|
②口口② |③-④-|
29
⑤③⑥口 |①-②-|
口①口口 |③-④-|
⑦①②⑧ |⑤-⑥-|
口口④④ |⑦-⑧-|
30
③口口① |①-②-|
口口①② |--③-|
口③②口
口口口口

口口口口
口④⑤口
口口口口 |--④-|
④口口⑤ |--⑤-|
31
口口口② |①-②③|
①口口口 |④-⑤⑥|
③口口⑤
口④⑥口

⑦口口口
⑩⑧口口
口口口口 |-⑦⑧-|
口口口⑨ |⑨-⑩-|
32
③口口① |①-②-|
口口①② |--③-|
口③②口
口口口口

口口口口
口④⑤口
口口口口 |--④-|
④口口⑤ |--⑤-|
33
③①①③ |①--②|
口口口口 |--③-|
口口口口
口②②口

口⑧⑧口
④口口④
⑥口⑤口 |④-⑤⑥|
⑦口口口 |⑦-⑧-|
34
口口口⑤ |①-②③|
⑨①①⑩ |④-⑤-|
⑥③⑦② |⑥⑦⑧-|
口④⑧口 |⑨-⑩-|
35
⑦①②⑧ |①-②-|
口③④口 |③-④-|
口口口口 |⑤-⑥-|
⑤口口⑥ |⑦-⑧-|
36
⑤①⑤口 |①-②-|
⑦③⑦口 |③--④|
口⑥口⑥ |-⑤--|
口④②④ |⑥-⑦-|
37
⑥①⑩口 |①-②③|
口⑧口② |④-⑤-|
③口口⑦ |⑥-⑦⑧|
④⑨口⑤ |⑨-⑩-|
38
③口口① |①-②-|
口口①② |--③-|
口③②口
口口口口

口口口口
口④⑤口
口口口口 |--④-|
④口口⑤ |--⑤-|
39
口口口② |①-②③|
①口口口 |④-⑤⑥|
③口口⑤
口④⑥口

⑦口口口
⑩⑧口口
口口口口 |-⑦⑧-|
口口口⑨ |⑨-⑩-|
40
③口口① |①-②-|
口口①② |--③-|
口③②口
口口口口

口口口口
口④⑤口
口口口口 |--④-|
④口口⑤ |--⑤-|
41
③①①③ |①--②|
口口口口 |--③-|
口口口口
口②②口

口⑧⑧口
④口口④
⑥口⑤口 |④-⑤⑥|
⑦口口口 |⑦-⑧-|
42
口口口⑤ |①-②③|
⑨①①⑩ |④-⑤-|
⑥③⑦② |⑥⑦⑧-|
口④⑧口 |⑨-⑩-|
43
⑦①②⑧ |①-②-|
口③④口 |③-④-|
口口口口 |⑤-⑥-|
⑤口口⑥ |⑦-⑧-|
44
⑥口口⑥ |①---|
②口口口 |--②③|
①③④① |④--⑤|
⑤①①⑤ |--⑥-|
45
口④口口 |①--②|
口口①⑥ |--③-|
②⑦口⑤ |④-⑤⑥|
口口③⑧ |⑦-⑧-|
46
④⑩⑪① |①-②③|
③⑤⑧口 |④-⑤-|
②⑦口口 |⑥⑦⑧-|
⑥口口⑨ |⑨-⑩⑪|
47
③口⑩① |①-②-|
②④口⑦ |③④⑤-|
口口⑤⑧ |⑥-⑦⑧|
⑥口口⑨ |⑨-⑩-|
48
④⑩⑪① |①-②③|
③口⑧口 |④-⑤-|
②⑦口口 |⑥⑦⑧-|
⑥⑤口⑨ |⑨-⑩⑪|
49
③口⑩① |①-②-|
②④口⑦ |③④⑤-|
口口⑤⑧ |⑥-⑦⑧|
⑥口口⑨ |⑨-⑩-|
50
④⑩⑪① |①-②③|
③⑤⑧口 |④-⑤-|
②⑦口口 |⑥⑦⑧-|
⑥口口⑨ |⑨-⑩⑪|
51
③口⑩① |①-②-|
②④口⑦ |③④⑤-|
口口⑤⑧ |⑥-⑦⑧|
⑥口口⑨ |⑨-⑩-|
52
④⑩⑪① |①-②③|
③口⑧口 |④-⑤-|
②⑦口口 |⑥⑦⑧-|
⑥⑤口⑨ |⑨-⑩⑪|
53
③口⑩① |①-②-|
②④口⑦ |③④⑤-|
口口⑤⑧ |⑥-⑦⑧|
⑥口口⑨ |⑨-⑩-|
54
④①口① |①-②③|
③⑤口口 |④-⑤-|
②口口口
口口口口

口⑩⑪口
口口⑧口
口⑦口口 |⑥⑦⑧-|
⑥口口⑨ |⑨-⑩⑪|
55
③口⑩① |①-②-|
②④口⑦ |③④⑤-|
口口⑤⑧ |⑥-⑦⑧|
⑥口⑥⑨ |⑨-⑩-|
56
④①口① |①-②③|
③口口口 |④-⑤-|
②口口口
口⑤口口

口⑩⑪口
口口⑧口
口⑦口口 |⑥⑦⑧-|
⑥口口⑨ |⑨-⑩⑪|
57
③口⑩① |①-②-|
②④口⑦ |③④⑤-|
口口⑤⑧ |⑥-⑦⑧|
⑥⑨⑥⑨ |⑨-⑩-|
58
④①口① |①-②③|
③⑤口口 |④-⑤-|
②口口口
口口口口

口⑩⑪口
口口⑧口
口⑦口口 |⑥⑦⑧-|
⑥口口⑨ |⑨-⑩⑪|
59
③口⑩① |①-②-|
②④口⑦ |③④⑤-|
口口⑤⑧ |⑥-⑦⑧|
⑥口⑥⑨ |⑨-⑩-|
60
⑥口口⑩ |①-②-|
⑦②①⑪ |③-④-|
⑧③④⑫ |⑤--⑥⑦⑧|
⑨口⑤口 |⑨--⑩⑪⑫|
61
⑩⑤③⑩ |①-②③|
口⑦②口 |-④-⑤|
口⑥⑨口 |--⑥⑦|
口④⑧① |⑧⑨-⑩|
62
口口⑤口 |①---|
③口口④ |②---|
①口口② |③---|
口口口口 |④-⑤-|
63
口①口口 |--①-|
口⑤口口 |--②-|
口口口④ |--③-|
口②③口 |④-⑤-|
64
①⑤④口 |①---|
②口口③ |②---|
口口口口 |③-④-|
口口口口 |--⑤-|
65
口口口口 |--①-|
④口口③ |--②-|
口口口口 |--③-|
口②①口 |--④-|
66
口口①口 |①-②-|
⑧④⑤口 |③-④-|
⑥口口③ |⑤-⑥-|
②口口⑦ |⑦-⑧-|
67
④⑭⑤① |①②③④|
⑫⑧⑬⑨ |⑤⑥⑦⑧|
⑩②⑦⑮ |⑨⑩⑪⑫|
⑥⑯③⑪ |⑬⑭⑮⑯|
68
口②口① |①---|
口口③口 |----|
口口口口 |----|
口口口口 |--②③|
69
④口⑦③ |①-②-|
⑦⑦⑦⑦ |③-④-|
②⑧⑦① |⑤-⑥-|
口⑥⑦⑤ |⑦-⑧-|
70
口①⑨⑨ |①-②③|
口⑧口口 |④-⑤-|
③口⑦② |⑥-⑦-|
④⑥口⑤ |⑧-⑨-|
71
①①⑦口 |--①-|
口⑥⑤口 |--②-|
口口④口 |③-④⑤|
口③②② |⑥-⑦-|
72
③口口⑤ |①---|
口口⑤① |②-③-|
口口④① |--④-|
②口口④ |--⑤-|
73
口①⑤口 |--①-|
①⑤口口 |--②-|
口③口② |--③-|
③④②口 |④-⑤-|
74
⑥①口⑦ |①-②③|
③口口② |④-⑤-|
④口⑨口 |⑥-⑦-|
⑧口⑤⑨ |⑧-⑨-|
75
②①口口 |--①-|
②口③口 |----|
口④口口 |②-③-|
口口⑤⑤ |④-⑤-|
76
口口③② |--①-|
口口⑤口 |②---|
口口口① |--③-|
口④口口 |④-⑤-|
77
⑨口口口 |①-②-|
口口⑧口 |③-④-|
③①②④ |⑤-⑥⑦|
⑤⑦口⑥ |⑧-⑨-|
78
⑨①①⑨ |①-②③|
③口口② |④-⑤-|
④⑥⑦口 |⑥-⑦-|
⑧口⑤⑧ |⑧-⑨-|
79
口②②⑥ |--①-|
②口④② |--②-|
①⑤⑥① |③-④-|
口③③口 |⑤-⑥-|
80
①口口口 |①---|
③口口③ |--②-|
④口口④ |----|
②口口② |③-④-|
81
⑤③⑥口 |①-②-|
⑦①口口 |③-④-|
⑨①②⑧ |⑤-⑥⑦|
口口④④ |⑧-⑨-|
82
③口口① |①-②-|
口口①② |--③-|
口③②口
口口口口

口口口口
口④⑤口
口口口口 |--④-|
④口口⑤ |--⑤-|
83
口口口② |①-②③|
①口口口 |④-⑤⑥|
③口口⑤
口④⑥口

⑦口口口
⑩⑧口口
口口口口 |-⑦⑧-|
口口口⑨ |⑨-⑩-|
84
③口口① |①-②-|
口口①② |--③-|
口③②口
口口口口

口口口口
口④⑤口
口口口口 |--④-|
④口口⑤ |--⑤-|
85
③①①③ |①--②|
口口口口 |--③-|
口口口口
口②②口

口⑧⑧口
④口口④
⑥口⑤口 |④-⑤⑥|
⑦口口口 |⑦-⑧-|
86
口口口⑤ |①-②③|
⑨①①⑩ |④-⑤-|
⑥③⑦② |⑥⑦⑧-|
口④⑧口 |⑨-⑩-|
87
⑦①②⑧ |①-②-|
口③④口 |③-④-|
口口口口 |⑤-⑥-|
⑤口口⑥ |⑦-⑧-|
88
⑤①⑤口 |①-②-|
⑦③⑦口 |③--④|
口⑥口⑥ |-⑤--|
口④②④ |⑥-⑦-|
89
⑥①⑩口 |①-②③|
口⑧口② |④-⑤-|
③口口⑦ |⑥-⑦⑧|
④⑨口⑤ |⑨-⑩-|
90
③口口① |①-②-|
口口①② |--③-|
口③②口
口口口口

口口口口
口④⑤口
口口口口 |--④-|
④口口⑤ |--⑤-|
91
口口口② |①-②③|
①口口口 |④-⑤⑥|
③口口⑤
口④⑥口

⑦口口口
⑩⑧口口
口口口口 |-⑦⑧-|
口口口⑨ |⑨-⑩-|
92
③口口① |①-②-|
口口①② |--③-|
口③②口
口口口口

口口口口
口④⑤口
口口口口 |--④-|
④口口⑤ |--⑤-|
93
③①①③ |①--②|
口口口口 |--③-|
口口口口
口②②口

口⑧⑧口
④口口④
⑥口⑤口 |④-⑤⑥|
⑦口口口 |⑦-⑧-|
94
口口口⑤ |①-②③|
⑨①①⑩ |④-⑤-|
⑥③⑦② |⑥⑦⑧-|
口④⑧口 |⑨-⑩-|
95
⑦①②⑧ |①-②-|
口③④口 |③-④-|
口口口口 |⑤-⑥-|
⑤口口⑥ |⑦-⑧-|
96
⑥口口⑥ |①---|
②口口口 |--②③|
①③④① |④--⑤|
⑤①①⑤ |--⑥-|
97
口④口口 |①--②|
口口①⑥ |--③-|
②⑦口⑤ |④-⑤⑥|
口口③⑧ |⑦-⑧-|
98
口口①口 |①---|
口①口口 |----|
口口①口 |----|
①①口口 |----|


不確定度: 0

最終更新:2014年05月04日 22:18