Romancing Layer
TAG

EXTREME

Level: 10
BPM: 150
Notes: 717

1
口口口口 |----|
口口口口 |----|
口口口口 |----|
口口口口 |----|
2
③⑧⑩⑦ |①-②-|
口口⑥② |③-④-|
口口口④ |⑤-⑥⑦|
①⑤⑨口 |⑧⑨-⑩|
3
③⑧⑥⑩ |①-②-|
口口⑦④ |③-④-|
口口口② |⑤-⑥⑦|
①⑤口⑨ |⑧⑨-⑩|
4
③⑧⑩⑦ |①-②-|
口口⑥② |③-④-|
口口口④ |⑤-⑥⑦|
①⑤⑨口 |⑧⑨-⑩|
5
③⑧⑥⑩ |①-②-|
口口⑦④ |③-④-|
口口口② |⑤-⑥⑦|
①⑤口⑨ |⑧⑨-⑩|
6
③⑧⑩⑦ |①-②-|
口口⑥② |③-④-|
口口口④ |⑤-⑥⑦|
①⑤⑨口 |⑧⑨-⑩|
7
③⑧⑥⑩ |①-②-|
口口⑦④ |③-④-|
口口口② |⑤-⑥⑦|
①⑤口⑨ |⑧⑨-⑩|
8
③⑧⑩⑦ |①-②-|
口口⑥② |③-④-|
口口口④ |⑤-⑥⑦|
①⑤⑨口 |⑧⑨-⑩|
9
③⑩⑧⑬ |①-②-|
⑫⑦⑨④ |③-④-|
⑥口口② |⑤-⑥⑦⑧-⑨-|
①⑤口⑪ |⑩⑪⑫⑬|
10
③⑨⑦⑩ |①-②-|
口口⑤② |③-④⑤|
口口⑨④ |⑥⑦-⑧|
①⑥口⑧ |⑨-⑩-|
11
③口口口 |①-②-|
口口⑤② |③-④⑤|
口口口④
①口口口

口⑨⑦⑨
口口口⑩
口口口口 |⑥⑦-⑧|
口⑥口⑧ |⑨-⑩-|
12
④口口口 |①-②③|
⑥口③口 |④⑤⑥⑦|
口口⑦②
①口⑤口

口⑪⑩口
口⑬口⑨
口口口⑫ |⑧-⑨⑩|
口⑧口⑭ |⑪⑫⑬⑭|
13
④⑪⑫② |①-②③|
口⑬③⑤ |④⑤⑥⑦|
⑥口⑦⑨ |⑧-⑨⑩|
①⑧口⑩ |⑪⑫⑬-|
14
③⑨⑦⑩ |①-②-|
口口⑤② |③-④⑤|
口口⑨④ |⑥⑦-⑧|
①⑥口⑧ |⑨-⑩-|
15
③口口口 |①-②-|
口口⑤② |③-④⑤|
口口口④
①口口口

口⑨⑦⑨
口口口⑩
口口口口 |⑥⑦-⑧|
口⑥口⑧ |⑨-⑩-|
16
④口口口 |①-②③|
⑥口③口 |④⑤⑥⑦|
口口⑦②
①口⑤口

口⑪⑩口
口⑬口⑨
口口口⑫ |⑧-⑨⑩|
口⑧口⑭ |⑪⑫⑬⑭|
17
④⑩⑩② |①-②③|
⑨⑪③⑤ |④⑤⑥⑦|
⑥⑫⑦口 |⑧-⑨-|
①⑧⑧口 |⑩-⑪⑫|
18
③⑨⑦⑩ |①-②-|
口口⑤② |③-④⑤|
口口⑨④ |⑥⑦-⑧|
①⑥口⑧ |⑨-⑩-|
19
③口口口 |①-②-|
口口⑤② |③-④⑤|
口口口④
①口口口

口⑨⑦⑨
口口口⑩
口口口口 |⑥⑦-⑧|
口⑥口⑧ |⑨-⑩-|
20
④口口口 |①-②③|
⑥口③口 |④⑤⑥⑦|
口口⑦②
①口⑤口

口⑪⑩口
口⑬口⑨
口口口⑫ |⑧-⑨⑩|
口⑧口⑭ |⑪⑫⑬⑭|
21
④⑪⑫② |①-②③|
口⑬③⑤ |④⑤⑥⑦|
⑥口⑦⑨ |⑧-⑨⑩|
①⑧口⑩ |⑪⑫⑬-|
22
③⑨⑦⑩ |①-②-|
口口⑤② |③-④⑤|
口口⑨④ |⑥⑦-⑧|
①⑥口⑧ |⑨-⑩-|
23
③口口口 |①-②-|
口口⑤② |③-④⑤|
口口口④
①口口口

口⑨⑦⑨
口口口⑩
口口口口 |⑥⑦-⑧|
口⑥口⑧ |⑨-⑩-|
24
④口口口 |①-②③|
⑥口③口 |④⑤⑥⑦|
口口⑦②
①口⑤口

口⑪⑩口
口⑬口⑨
口口口⑫ |⑧-⑨⑩|
口⑧口⑭ |⑪⑫⑬⑭|
25
④口口② |①-②③|
口口③⑤ |④⑤⑥⑦|
⑥口⑦口
①口口口

口⑧⑧口
口⑨口口
口⑪口口 |⑧-⑨-|
⑩口口⑩ |⑩-⑪-|
26
④口口口 |①--②|
①口③口 |③-④-|
②口口口
口①口口

口⑧口⑧
口⑥⑨口
口⑦口口 |-⑤⑥-|
⑤口口口 |⑦-⑧⑨|
27
⑤口口口 |①--②|
②口口④ |--③-|
口口⑥① |④--⑤|
口口③口 |--⑥-|
28
③⑦口③ |①--②|
①⑤②⑦ |--③-|
②⑥口⑥ |-④⑤-|
④①口⑤ |⑥-⑦-|
29
口口④⑤ |①-②-|
口口②⑦ |③-④-|
口口③⑥ |⑤-⑥-|
口口①⑧ |⑦-⑧-|
30
③⑦口口 |①--②|
①⑤①⑦ |--③-|
②⑥口⑥ |-④⑤-|
④①口⑤ |⑥-⑦-|
31
④⑨①① |①--②|
①⑦③⑧ |③-④-|
②⑧③⑧ |⑤⑥⑦-|
⑥①⑤⑤ |⑧-⑨-|
32
③口③① |①--②|
①口口口 |--③-|
②口②口
口①口口

口⑦口⑦
口⑤⑧口
口⑥口口 |-④⑤-|
④口口口 |⑥-⑦⑧|
33
口口口口 |①---|
③口口③ |--②-|
口口①口 |③---|
口②②口 |----|
34
③口口口 |①-②-|
口⑤口④ |③④⑤⑥|
口口②⑥
①口口①

口⑨口⑩
口口⑧口
⑪口⑫口 |⑦-⑧-|
口⑦⑦口 |⑨⑩⑪⑫|
35
③⑦口⑦ |①--②|
口②⑧④ |③-④-|
口口⑨⑥ |⑤-⑥-|
①⑤口① |⑦⑧⑨-|
36
④口③口 |①-②③|
口口口② |④⑤⑥-|
口口口⑥
①口⑤①

口⑩口⑨
口口⑧口
口⑦⑪口 |⑦-⑧⑨|
口⑦口⑫ |⑩⑪⑫-|
37
④⑨③⑤ |①-②③|
口口⑥② |④-⑤⑥|
口口⑧⑩ |⑦-⑧-|
①⑦①口 |⑨-⑩-|
38
②⑦④口 |①---|
口口⑧③ |②-③④|
口口口⑥ |⑤-⑥-|
①⑤口① |⑦-⑧-|
39
③⑦口② |①-②-|
③口⑧② |③-④-|
①口⑦④ |⑤-⑥-|
①⑤⑥④ |⑦-⑧-|
40
⑤⑬⑩② |①②③④|
⑦⑮⑫④ |⑤⑥⑦⑧|
③⑪⑯⑧ |⑨⑩⑪⑫|
①⑨⑭⑥ |⑬⑭⑮⑯|
41
⑤口口② |①②③④|
⑦口口④ |⑤⑥⑦⑧|
③口口⑧
①口口⑥

口⑬⑩⑯
口口⑫口
⑮⑪口口 |⑨⑩⑪⑫|
口⑨⑭口 |⑬⑭⑮⑯|
42
③口口口 |①-②-|
口⑤口④ |③④⑤⑥|
口口②⑥
①口口①

口⑨口⑩
口口⑧口
⑪口⑫口 |⑦-⑧-|
口⑦⑦口 |⑨⑩⑪⑫|
43
③⑦②⑦ |①--②|
④口⑧④ |③-④-|
口⑥⑨⑥ |⑤-⑥-|
①⑤②① |⑦⑧⑨-|
44
④口③口 |①-②③|
口口口② |④⑤⑥-|
口口口⑥
①口⑤①

口⑩口⑨
口口⑧口
口⑦⑪口 |⑦-⑧⑨|
口⑦口⑫ |⑩⑪⑫-|
45
④⑨③⑤ |①-②③|
口口⑥② |④-⑤⑥|
口口⑧⑩ |⑦-⑧-|
①⑦①口 |⑨-⑩-|
46
②⑦④口 |①---|
口口⑧③ |②-③④|
口口口⑥ |⑤-⑥-|
①⑤口① |⑦-⑧-|
47
③⑦口② |①-②-|
③口⑧② |③-④-|
①口⑦④ |⑤-⑥-|
①⑤⑥④ |⑦-⑧-|
48
⑤⑬⑩② |①②③④|
⑦⑮⑫④ |⑤⑥⑦⑧|
③⑪⑯⑧ |⑨⑩⑪⑫|
①⑨⑭⑥ |⑬⑭⑮⑯|
49
⑤⑬⑩② |①②③④|
⑦⑮⑫④ |⑤⑥⑦⑧|
③⑪⑯⑧ |⑨⑩⑪⑫|
①⑨⑭⑥ |⑬⑭⑮⑯|
50
⑤⑬⑮⑦ |①②③④|
②⑩⑫④ |⑤⑥⑦⑧|
⑥⑭⑯⑧ |⑨⑩⑪⑫|
①⑨⑪③ |⑬⑭⑮⑯|
51
⑤⑬⑮⑦ |①②③④|
⑥⑭⑯⑧ |⑤⑥⑦⑧|
②⑩⑫④ |⑨⑩⑪⑫|
①⑨⑪③ |⑬⑭⑮⑯|
52
⑤⑬⑫④ |①②③④|
②⑩⑯⑧ |⑤⑥⑦⑧|
⑥⑭⑪③ |⑨⑩⑪⑫|
①⑨⑮⑦ |⑬⑭⑮⑯|
53
⑤⑬⑭⑥ |①②③④|
⑦⑮⑯⑧ |⑤⑥⑦⑧|
③⑪⑫④ |⑨⑩⑪⑫|
①⑨⑩② |⑬⑭⑮⑯|
54
⑤⑬⑫④ |①②③④|
⑥⑭⑪③ |⑤⑥⑦⑧|
②⑩⑮⑧ |⑨⑩⑪⑫|
①⑨⑯⑦ |⑬⑭⑮⑯|
55
⑤口口口 |①②③④|
⑦口⑥② |⑤⑥⑦⑧|
③口口⑧
①口口④

口⑬⑩口
口⑪口⑭
⑮口⑯口 |⑨⑩⑪⑫|
口⑨⑫口 |⑬⑭⑮⑯|
56
②⑤口口 |①---|
口③③口 |②-③-|
口口口口 |④---|
①④④① |⑤---|
57
②⑥口口 |①---|
口④口口 |②---|
口⑦⑦⑤ |③-④⑤|
①③③口 |⑥-⑦-|
58
口口口① |①---|
②⑨⑧② |--②-|
⑦⑪⑩③ |③-④⑤⑥-⑦-|
①⑥⑤④ |⑧⑨⑩⑪|
59
①②③④ |①②③④⑤⑥|
⑫⑬⑭⑤ |⑦⑧⑨⑩⑪⑫|
⑪⑯⑮⑥ |⑬⑭⑮⑯--|
⑩⑨⑧⑦ |----|


不確定度: 0

最終更新:2014年01月08日 16:54