Right on time (Ryu☆Remix)
Ryu☆

ADVANCED

Level: 7
BPM: 149
Notes: 465

1
口口口口 |----|
口口口口 |----|
口口口口 |----|
口口口口 |----|
2
口口口口 |①--②|
口⑦⑥③ |--③-|
口口口② |④⑤-⑥|
口④⑤① |⑦---|
3
①⑧口① |①-②-|
②⑦口口 |③-④-|
③⑥口口 |⑤-⑥-|
④⑤口口 |⑦-⑧-|
4
①口⑧① |①-②-|
口口⑦② |③-④-|
口口⑥③ |⑤-⑥-|
口口⑤④ |⑦-⑧-|
5
①口口① |①-②-|
②口口口 |③-④-|
③口口⑧ |⑤-⑥-|
④⑤⑥⑦ |⑦-⑧-|
6
①①口口 |①---|
①口口口 |----|
②②口口 |②---|
②②口口 |----|
7
口口口口 |①-②-|
②①①① |③-④-|
③口①口
④口口口

口⑧口口
口⑦口口
口⑥口口 |⑤-⑥-|
口⑤口口 |⑦-⑧-|
8
①口⑧① |①-②-|
口口⑦② |③-④-|
口口⑥③ |⑤-⑥-|
口口⑤④ |⑦-⑧-|
9
①⑧口① |①-②-|
②⑦口口 |③-④-|
③⑥口口 |⑤-⑥-|
④⑤口口 |⑦-⑧-|
10
①口⑧① |①-②-|
口口⑦② |③-④-|
口口⑥③ |⑤-⑥-|
口口⑤④ |⑦-⑧-|
11
①①口口 |①---|
①③③③ |②---|
②②③口 |③---|
②②口口 |----|
12
口口口口 |----|
口口口口 |----|
①②口口 |----|
口口口口 |①-②-|
13
口口口口 |①---|
②③口① |②-③-|
⑤⑥口④ |④---|
口口口口 |⑤-⑥-|
14
口口口口 |①---|
口口①① |②---|
④⑤②② |③---|
口口③③ |④-⑤-|
15
口口口④ |①---|
②③⑤① |②-③-|
口口口⑥ |④-⑤-|
口口⑦口 |⑥-⑦-|
16
③③口口 |①---|
②②口口 |②---|
①①⑤④ |③---|
口口口口 |④-⑤-|
17
口口口口 |①---|
①口③② |②-③-|
④口⑥⑤ |④---|
口口口口 |⑤-⑥-|
18
口口口口 |①---|
①①口口 |②---|
②②⑤④ |③---|
③③口口 |④-⑤-|
19
口口口口 |①---|
①④③② |②-③-|
口⑤口口 |④-⑤-|
口口⑥⑦ |⑥-⑦-|
20
①①口口 |①---|
①口口口 |----|
②②口口 |②---|
②②口口 |----|
21
口口口口 |①---|
口①①① |----|
口口①口 |----|
口口口口 |----|
22
⑥口⑦口 |①-②-|
口②口③ |③-④-|
⑧口⑤口 |⑤-⑥-|
口④口① |⑦-⑧-|
23
口⑥口⑦ |①-②-|
口②口③ |③-④-|
口⑧口⑤ |⑤-⑥-|
口④口① |⑦-⑧-|
24
⑦⑥口⑦ |①-②-|
⑤②口③ |③-④-|
③⑧口⑤ |⑤-⑥-|
①④口① |⑦-⑧-|
25
口口口口 |--①-|
口口②① |②-③-|
口口④③ |④-⑤-|
口口口⑤ |----|
26
⑤口口口 |--①-|
口④口口 |②-③-|
口②口③ |④-⑤-|
①口口口 |----|
27
口口口① |--①-|
口口②③ |②-③-|
口④口⑤ |④-⑤-|
口⑥口⑦ |⑥-⑦-|
28
口①口口 |①---|
①口①口 |--②-|
②②②口 |----|
②口②口 |----|
29
口口口口 |--①-|
①②口口 |②-③-|
③④口口 |④-⑤-|
⑤口口口 |----|
30
口口口⑤ |--①-|
口口④口 |②-③-|
③口②口 |④-⑤-|
口口口① |----|
31
口口口口 |--①-|
①⑥口⑦ |②-③-|
②④口⑤ |④-⑤-|
口口③口 |⑥-⑦-|
32
①①①口 |①---|
①口①口 |--②-|
②②②口 |----|
②口口口 |----|
33
口口口④ |①-②-|
口口⑤③ |③-④-|
②⑥口口 |⑤-⑥-|
口口口① |----|
34
口①口口 |①---|
①口口③ |②---|
⑤口②③ |③---|
④口②③ |④-⑤-|
35
⑤口口口 |①-②-|
①③②④ |③-④-|
口口口口 |--⑤-|
口口口口 |----|
36
口①①① |①---|
口②①② |--②-|
口口②口 |----|
口②口口 |----|
37
口口④口 |①-②-|
③口④口 |③-④-|
口口②口 |----|
①口②口 |----|
38
口口口① |①---|
口②口① |②---|
口口②⑤ |③---|
③③口④ |④-⑤-|
39
④口口口 |①-②-|
口②③① |③-④-|
口口口口 |----|
口口口口 |----|
40
②口②口 |①---|
口②口① |----|
②口①① |②---|
口①①口 |----|
41
口口口口 |----|
口口口口 |----|
①②口口 |----|
口口口口 |①-②-|
42
口口口① |①---|
②③口① |②-③-|
⑤⑥口④ |④---|
口口口④ |⑤-⑥-|
43
口口口口 |①---|
口口①① |②---|
④⑤②② |③---|
口口③③ |④-⑤-|
44
口口②① |①---|
口③口① |②-③-|
口⑦④口 |④-⑤-|
口⑤⑥口 |⑥-⑦-|
45
口③③口 |①---|
②②①① |②---|
口口⑤④ |③---|
口口口口 |④-⑤-|
46
①口口口 |①---|
①口③② |②-③-|
④口⑥⑤ |④---|
④口口口 |⑤-⑥-|
47
口口口口 |①---|
①①口口 |②---|
②②⑤④ |③---|
③③口口 |④-⑤-|
48
①②口口 |①---|
①口③口 |②-③-|
口④⑦口 |④-⑤-|
口⑥⑤口 |⑥-⑦-|
49
口③口口 |①-②-|
③口口口 |--③-|
①口口②
口口口口

口口口口
口口口口
④⑤口口 |----|
④⑤口口 |④-⑤-|
50
②③口① |①---|
②③口① |②-③-|
⑤⑥口④ |④---|
⑤⑥口④ |⑤-⑥-|
51
口口口口 |①---|
口口①① |②---|
④⑤②② |③---|
④⑤③③ |④-⑤-|
52
口口②① |①---|
口③口① |②-③-|
口⑦④口 |④-⑤-|
口⑤⑥口 |⑥-⑦-|
53
口口口口 |①---|
②口口① |②---|
②口口①
口口口口

③③③③
口口口口
口口⑤④ |③---|
口口⑤④ |④-⑤-|
54
口口③② |①---|
①①③② |②-③-|
④④⑥⑤ |④---|
口口⑥⑤ |⑤-⑥-|
55
口口口口 |①---|
①①口口 |②---|
②②⑤④ |③---|
③③⑤④ |④-⑤-|
56
①②口口 |①---|
①口③口 |②-③-|
口④⑦口 |④-⑤-|
口⑥⑤口 |⑥-⑦-|
57
①①口口 |①---|
①口口口 |----|
②②口口 |②---|
②②口口 |----|
58
口口口口 |①---|
口①①① |----|
口口①口 |----|
口口口口 |----|
59
⑥口⑦口 |①-②-|
口②口③ |③-④-|
⑧口⑤口 |⑤-⑥-|
口④口① |⑦-⑧-|
60
口⑥口⑦ |①-②-|
口②口③ |③-④-|
口⑧口⑤ |⑤-⑥-|
口④口① |⑦-⑧-|
61
⑦⑥口⑦ |①-②-|
⑤②口③ |③-④-|
③⑧口⑤ |⑤-⑥-|
①④口① |⑦-⑧-|
62
口口口口 |①---|
口口①口 |----|
口口口口 |----|
口口口口 |----|


不確定度: 0

最終更新:2013年10月24日 23:16