夏・KOI・ムッシュ!!
ビーチサンダルズ

ADVANCED

Level: 7
BPM: 140
Notes: 418

1
口口口口 |----|
口口口口 |----|
口口口口 |----|
口口口口 |----|
2
③口口口 |①--②|
③口口口 |--③-|
口⑤②口 |--④-|
④口口① |-⑤--|
3
口口口① |①---|
口口口① |②--③|
口③③口
口②②口

④④④④
口口口口
口口口口 |--④-|
口口口口 |----|
4
口口口口 |----|
口口口口 |----|
口口口口 |----|
口口口口 |----|
5
口口口口 |①---|
②①①② |----|
②①①② |②---|
口口口口 |----|
6
口口口① |①-②③|
口②③口 |-④--|
④口口⑧ |⑤-⑥-|
口⑤⑥⑦ |⑦-⑧-|
7
口②②口 |①-②-|
口口口① |--③-|
口③口⑤ |--④-|
口口④口 |--⑤-|
8
口③②口 |①---|
口口④① |②-③-|
口口口口 |--④-|
口⑤⑤口 |--⑤-|
9
口口口口 |----|
口口口口 |----|
口口口口 |----|
口口①口 |--①-|
10
⑤口口口 |①--②|
⑥③④口 |-③④-|
⑦口口② |--⑤-|
口①口口 |⑥-⑦-|
11
口③③口 |①--②|
口⑥口口 |--③-|
口⑤②口 |--④-|
①④口口 |⑤-⑥-|
12
口①②口 |①--②|
口⑤④口 |--③-|
口⑥③口 |④--⑤|
口口口口 |--⑥-|
13
口口口口 |①-②-|
口口口口 |----|
口口口口
②口①②

口口口口
口口口口
口口口口 |----|
③④口口 |③-④-|
14
口口口口 |①--②|
口③①口 |--③-|
口②口口
口口口口

口口④口
口口⑤口
口口⑥口 |④--⑤|
口口口口 |--⑥-|
15
口口口口 |①--②|
②①口口 |----|
②口口口 |----|
口口④③ |③-④-|
16
④④口口 |①--②|
口①③⑤ |--③-|
⑥口②⑤ |④---|
⑥口口口 |⑤-⑥-|
17
口口口口 |----|
口口口口 |----|
口②口口 |----|
口①口口 |①-②-|
18
③口②③ |①---|
口①口口 |②-③-|
④⑤⑥口 |--④-|
口口口口 |⑤-⑥-|
19
口口口口 |①--②|
口②口① |--③-|
口口⑤④ |----|
口③③口 |④-⑤-|
20
口⑤⑤口 |①---|
口口口口 |②---|
口①④口 |③--④|
口③②口 |--⑤-|
21
口口口口 |----|
口口口口 |----|
口口口口 |----|
①②口口 |①-②-|
22
口口口口 |①--②|
口③①口 |--③-|
口②口口
口口口口

口口④口
口口⑤口
口口⑥口 |④--⑤|
口口口口 |--⑥-|
23
口口口口 |①--②|
②①口口 |----|
②口口口 |----|
口口④③ |③-④-|
24
④④口口 |①--②|
口①③⑤ |--③-|
⑥口②⑤ |④---|
⑥口口口 |⑤-⑥-|
25
口口口口 |----|
口口口口 |----|
口②口口 |----|
口①口口 |①-②-|
26
③口②③ |①---|
口①口口 |②-③-|
④⑤⑥口 |--④-|
口口口口 |⑤-⑥-|
27
②口口① |①--②|
②口④① |--③-|
口口④口 |----|
口③③口 |--④-|
28
口⑤⑤口 |①---|
③①口② |②---|
③①口② |③--④|
口④④口 |--⑤-|
29
口口口口 |----|
口口口口 |----|
②口口口 |----|
①口口口 |①-②-|
30
口口口① |①-②-|
口口⑧② |③-④⑤|
口⑤⑦③ |--⑥-|
口口⑥④ |⑦-⑧-|
31
口口①② |①-②-|
口⑤口③ |③-④⑤|
口口口④
口口口口

口口⑧口
口口⑦口
口口⑥口 |--⑥-|
口口口口 |⑦-⑧-|
32
①口口① |①---|
口口口口 |----|
口口口口 |----|
口口口口 |----|
33
口口口口 |----|
口口口口 |----|
口口口口 |----|
①口口② |①-②-|
34
⑤⑧口口 |①-②-|
口⑦④口 |③-④⑤|
口⑥③口 |--⑥-|
口①②口 |⑦-⑧-|
35
口口①④ |①---|
口③②口 |②-③④|
口口⑤口 |--⑤-|
口⑦⑥口 |⑥-⑦-|
36
口③口④ |--①-|
⑤口②口 |②-③-|
口①口⑥ |④-⑤-|
⑦口口口 |⑥-⑦-|
37
②口口② |①---|
②口口② |②---|
口①①口 |----|
口口口口 |----|
38
口口口口 |----|
口口口口 |----|
口口口口 |----|
口口口口 |----|
39
口口口口 |①---|
口①①口 |----|
口①①口
口口口口

口口口口
②口口②
②口④② |②---|
口口③口 |③-④-|
40
口①口口 |①-②-|
⑤口②口 |③-④⑤|
⑤③口口
口口④口

口⑦⑦口
口口口⑥
口⑧⑧⑥ |-⑥--|
口口口口 |⑦-⑧-|
41
②⑤⑤① |①-②-|
口②①口 |③-④⑤|
④口口③
口口口口

口口口口
口⑥⑥口
口口口口 |----|
口口口口 |--⑥-|
42
④④口③ |①---|
②口口口 |②-③④|
口①①口
口口口口

口口口口
口口⑤口
口口⑥口 |--⑤-|
口口⑦口 |⑥-⑦-|
43
④口③④ |①--②|
②⑥⑤② |--③-|
①口口① |④---|
口口口口 |--⑤⑥|
44
口口口口 |①---|
口④⑤口 |②-③-|
口口①口 |----|
③②②③ |--④⑤|
45
口口口④ |①---|
口口口口 |②-③-|
口①口口 |----|
③②②③ |--④-|
46
③口口口 |①--②|
口④①口 |--③-|
②②⑤⑤ |④--⑤|
口⑥⑥口 |--⑥-|
47
口①①口 |①---|
口口口口 |----|
口口③口 |----|
口口②口 |②-③-|
48
①①口口 |①-②-|
⑤口②口 |③-④⑤|
⑤③口口
口口④口

口口口口
口⑦⑧⑥
口口⑨⑥ |-⑥-⑦|
口口口口 |⑧-⑨-|
49
②②①① |①-②-|
口⑥⑥③ |③-④⑤|
④口口⑤ |----|
口口口⑤ |--⑥-|
50
③③口口 |①---|
②口口口 |②--③|
口①①口
口口口口

口口口口
口口④口
口口⑤口 |--④-|
口口⑥口 |⑤-⑥-|
51
④口③④ |①--②|
②⑥⑤② |--③-|
①口口① |④---|
口口口口 |--⑤⑥|
52
口口口口 |①---|
口⑥⑤⑦ |②-③-|
口④①口 |--④⑤|
③②②③ |⑥-⑦-|
53
⑤⑤口口 |①-②③|
①口④口 |-④⑤-|
口口②口
口③口口

口口口口
口口口口
口口口口 |----|
口⑥⑥口 |--⑥-|
54
⑥口口⑥ |①--②|
④①①④ |--③-|
⑤②②⑤ |④--⑤|
③口口③ |--⑥-|
55
口①①口 |①--②|
口①①口 |----|
口口口口
②②②②

口口⑤口
口④口口
口口③口 |--③-|
口口口口 |④-⑤-|
56
①口口① |①---|
②口④② |②---|
③口⑤③ |③---|
口口口口 |④-⑤-|
57
⑤⑤口口 |①②③④|
口口口口 |⑤---|
③口口④
①口口②

口口口⑥
口口口⑦
口口口⑧ |--⑥-|
口口口口 |⑦-⑧-|
58
③④⑤⑥ |①--②|
口⑦口口 |--③-|
口②口口 |④-⑤-|
口口口① |⑥-⑦-|
59
口口口口 |①---|
口口口口 |----|
口①①口
口口口口

口口口口
口④口口
口③口口 |--②-|
口②口口 |③-④-|
60
口①①口 |①---|
④⑤⑥口 |②-③-|
口口②口 |--④-|
口③③口 |⑤-⑥-|
61
口口口① |①--②|
口口口① |--③-|
②口口口 |----|
②③③口 |----|
62
⑤口口② |①-②-|
①⑤②④ |-③--|
口①④口 |④-⑤-|
③③⑥⑥ |-⑥--|
63
口①口① |--①-|
②口②口 |-②--|
③③③③ |③---|
口口口口 |----|


不確定度: 0

最終更新:2013年10月17日 16:13