虹色の花
Akhuta y OJ

ADVANCED

Level: 7
BPM: 170
Notes: 483

1
口口口口 |----|
口口口口 |----|
口口口口 |----|
口口口口 |----|
2
③口①① |①---|
③口②② |②---|
⑤⑤口④ |③-④-|
口口口④ |--⑤-|
3
③口口口 |--①-|
③口口口 |--②-|
口④④② |③---|
①①口② |④---|
4
③①①③ |①---|
口口口口 |--②-|
口口口口 |----|
口②②口 |③---|
5
口口①口 |①-②-|
④②口⑤ |③-④-|
⑥口③⑦ |⑤-⑥-|
口口口口 |⑦---|
6
口口③口 |①---|
口②②口 |--②-|
口④⑤口 |--③-|
口①①口 |④-⑤-|
7
①口口④ |①---|
①⑥②④ |②-③-|
口口口口 |④---|
口③⑤口 |⑤-⑥-|
8
口①①口 |①---|
口③③口 |--②-|
口口口口 |----|
②口口② |③---|
9
口口①③ |①-②-|
口④⑤口 |--③-|
⑥②口⑦ |④-⑤-|
口口口口 |⑥-⑦-|
10
②口④② |①---|
口口口口 |--②-|
口⑤③口 |--③-|
口①①口 |④-⑤-|
11
口口口口 |①---|
口①①口 |--②-|
②口口②
口口口口

口口口口
口口⑤口
口口口口 |--③-|
口④③口 |④-⑤-|
12
口①①② |①---|
口④③② |②---|
口口⑤口 |--③-|
口口口口 |④-⑤-|
13
口口口口 |①---|
口口口口 |--②-|
①口口口 |----|
①口②② |----|
14
口口①① |----|
口②口口 |①---|
口口③口 |--②-|
口口口④ |③-④-|
15
口口③③ |①---|
口口口口 |--②-|
②②口口 |----|
①①口口 |③---|
16
口口口口 |①---|
口口①① |--②-|
口口口口 |----|
口②②口 |----|
17
口①①口 |----|
口②②口 |①---|
口③③口 |②---|
口口口口 |③---|
18
②口口② |①---|
③口口③ |--②-|
口口口口 |----|
口①①口 |③---|
19
口②②口 |①---|
口口口口 |②-③-|
①③③① |----|
口口口口 |----|
20
口口口① |----|
口③②① |①---|
口口④口 |--②-|
口口口口 |③-④-|
21
②口口口 |①---|
口口口口 |②-③-|
①口口口 |----|
①口口③ |----|
22
口口①① |----|
②③④口 |①---|
口口口口 |--②-|
口口口口 |③-④-|
23
口口口口 |①---|
口口口口 |--②-|
①②口口 |----|
①②③③ |③---|
24
口②②口 |①---|
口口口口 |--②-|
口口①① |----|
口口口口 |----|
25
口口口口 |----|
口③③口 |①---|
口②②口 |②---|
①口口① |③---|
26
①②②① |①---|
口口口口 |--②-|
口口口口
口口口口

③口口③
口口口口
④口口④ |----|
口口口口 |③-④-|
27
口口口口 |----|
口①①口 |①-②-|
口口口口 |----|
口②②口 |----|
28
口口口口 |----|
口口口口 |----|
口口口口 |----|
口口口口 |----|
29
口口口② |----|
口口③② |①---|
口口③口 |②---|
①①口口 |③---|
30
①①④④ |①---|
口口口口 |②---|
②②口口 |③---|
口口③③ |④---|
31
口口口口 |----|
口口口口 |①---|
①③口② |②---|
①③口② |③---|
32
口③①① |①---|
口口④口 |②---|
口⑤口口 |③-④-|
口口②② |⑤---|
33
口口口口 |----|
口口②② |①---|
③③口口 |②---|
口口①① |③---|
34
②口①① |①---|
②③口口 |②---|
口③④口 |③---|
口口④口 |④---|
35
口口③③ |①---|
②②口口 |--②-|
口口口口 |----|
①①口口 |③---|
36
口口口口 |①---|
口口口口 |--②-|
口口①① |----|
②②口口 |----|
37
口口②② |----|
口口口口 |①---|
①口③③ |②---|
①口口口 |③---|
38
①①口② |①---|
口口口② |②---|
口口口口
口口口口

④④口口
口口③口
口口③口 |③---|
口口口口 |④---|
39
口口口口 |----|
口口②② |①---|
①口口口 |②---|
①口③③ |③---|
40
①①③口 |①---|
口④口② |②---|
口口⑤② |③-④-|
口口口口 |⑤---|
41
①①口② |----|
③③口④ |①-②-|
⑤⑤口⑥ |③-④-|
口口口口 |⑤-⑥-|
42
③③口④ |①-②-|
⑤⑤口⑥ |③-④-|
⑦⑦口⑧ |⑤-⑥-|
①①口② |⑦-⑧-|
43
口口②② |①---|
口口口口 |--②-|
口口口口 |----|
①①③③ |③---|
44
②②②② |①---|
口口口口 |--②-|
口口口口
①①口口

口口口口
口口口口
口口口口 |----|
③③③③ |③---|
45
口口口口 |----|
口口口口 |----|
口口口口 |----|
口口口口 |----|
46
口口①口 |①---|
口口口② |----|
②口口口 |②---|
口①口口 |----|
47
③口①口 |①---|
口口口② |②---|
②口口口 |③---|
口①口③ |----|
48
口口口③ |①---|
口①②口 |----|
口②①口 |②---|
③口口口 |--③-|
49
口①①口 |--①-|
口口口口 |②---|
口口口口 |----|
口②②口 |----|
50
②口口② |①---|
口口口口 |----|
口口口口 |②---|
①口口① |----|
51
口③③口 |①---|
①口①口 |②---|
口②口② |③---|
口口口口 |----|
52
③③口口 |①---|
口口④④ |----|
①口口① |②---|
口②②口 |③-④-|
53
口口②口 |①---|
口②口口 |②---|
①①口口 |----|
口口口口 |----|
54
口②②口 |①---|
口口口口 |----|
口口口口 |②---|
口①①口 |----|
55
口③③口 |①---|
①口口② |②---|
②口口① |③---|
口口口口 |----|
56
口口口口 |①---|
口①①口 |----|
③③口口 |②---|
②口口② |--③-|
57
口口①① |--①-|
②②口口 |②---|
口口口口 |----|
口口口口 |----|
58
口口口① |①---|
口口②口 |----|
口②口口 |②---|
①口口口 |----|
59
口②①口 |①---|
口④③口 |②---|
口③④口 |③-④-|
⑤①②⑤ |--⑤-|
60
①①①① |----|
口②②口 |----|
②口口② |①---|
口口口口 |--②-|
61
口口②② |----|
口口③③ |①---|
口①①口 |②---|
口①①口 |③---|
62
①口口口 |①-②-|
①口口口 |--③-|
③③口②
口口口②

口口口口
口口口口
口口口⑤ |--④-|
④④口⑤ |--⑤-|
63
①③③口 |①---|
①口口口 |②---|
④②②④ |③---|
口口口口 |--④-|
64
①①①① |----|
口②②口 |----|
②口口② |①---|
口口口口 |--②-|
65
④②②③ |----|
口口口口 |①---|
口①①口 |②---|
口①①口 |③-④-|
66
口口⑦口 |①-②-|
②口口① |③-④-|
口④③口 |⑤-⑥-|
口⑥⑤口 |⑦---|
67
口口⑥口 |①---|
⑤①口② |②-③-|
⑦③口口 |④-⑤-|
口口④口 |⑥-⑦-|
68
口⑧口口 |①-②-|
口②⑦口 |③-④-|
口口⑤③ |⑤-⑥-|
⑥④口① |⑦-⑧-|
69
②口③① |①---②-|
口⑦④口 |--③---|
口⑤⑥口 |④-⑤-|
口口口口 |⑥-⑦-|
70
口③②① |①---|
口⑤④口 |②-③-|
⑦口口⑥ |④-⑤-|
口口口口 |⑥-⑦-|
71
口口口口 |①-②-|
口口口口 |③-④-|
口④口口
②口③①

口口口⑤
口⑥口口
⑧口口口 |⑤-⑥-|
口口口⑦ |⑦-⑧-|
72
口⑥①口 |①-②-|
②口口⑤ |③-④-|
口④⑦口 |⑤-⑥-|
⑧口③口 |⑦-⑧-|
73
②口口口 |①-②-|
口④①口 |③-④-|
口口口③ |⑤---|
口口⑤口 |----|
74
口口④④ |①---②-|
口口①① |--③---|
口口②② |④---|
口口③③ |----|
75
口口①① |----|
口口②② |----|
口口口口 |①---|
口口口口 |②---|
76
①口口口 |①-②-|
①口口口 |--③-|
③③口②
口口口②

口口口口
口口口口
口口口⑤ |--④-|
④④口⑤ |--⑤-|
77
①口口口 |①---|
①口口口 |②---|
口②②口 |----|
口口口口 |----|


不確定度: 0

最終更新:2013年10月01日 21:06