We're so Happy
Ryu☆

EXTREME

Level: 10
BPM: 185
Notes: 915

1
口口口口 |----|
口口口口 |----|
口口口口 |----|
口口口口 |----|
2
⑤口③① |①-②-|
口⑦口④ |③-④-|
口⑥②口 |--⑤-|
口口口口 |⑥-⑦-|
3
口口口口 |①-②-|
⑥⑦②④ |③-④-|
口口③口 |--⑤-|
口⑤口① |⑥-⑦-|
4
⑤口③① |①-②-|
口⑦口④ |③-④-|
口⑥②口 |--⑤-|
口口口口 |⑥-⑦-|
5
口口口口 |①-②-|
⑥⑦②④ |③-④-|
口口③口 |--⑤-|
口⑤口① |⑥-⑦-|
6
④⑥⑥④ |①-②-|
口口口③ |③-④-|
②口口口 |--⑤-|
口⑤⑤① |--⑥-|
7
口口口口 |①-②-|
⑥⑦②④ |③-④-|
口口③口 |--⑤-|
口⑤口① |⑥-⑦-|
8
口③③① |①-②-|
口口口口 |--③-|
口口口②
口口口口

⑤口口⑤
口口口口
口口口口 |--④-|
口④④口 |--⑤-|
9
口口口口 |①-②-|
⑥⑦②④ |③-④-|
口口③口 |--⑤-|
口⑤口① |⑥-⑦-|
10
口④④⑤ |①-②-|
⑤口口③ |③-④-|
②④④⑤ |--⑤-|
⑤口口① |----|
11
④口④口 |①-②-|
口①③口 |③-④-|
④口④口
口口②口

口⑤口⑤
口⑥口⑥
口⑤口⑤ |--⑤-|
口⑥口⑥ |--⑥-|
12
口⑤⑥⑦ |①-②-|
口口口口 |③-④-|
③口④口 |--⑤-|
①口②口 |⑥-⑦-|
13
口口口口 |①-②-|
口⑤⑥⑦ |③-④-|
口①口② |--⑤-|
口③口④ |⑥-⑦-|
14
口⑤⑥⑦ |①-②-|
口口口口 |③-④-|
①口②口 |--⑤-|
③口④口 |⑥-⑦-|
15
口口口口 |①-②-|
口③口③ |--③-|
①口口②
口③口③

⑤口⑤口
④口④口
⑤口⑤口 |--④-|
④口④口 |--⑤-|
16
⑤口⑤① |①-②-|
口④口④ |--③-|
口口口② |--④-|
口③口③ |--⑤-|
17
口口口③ |①-②-|
口口口⑥ |--③-|
②口口⑤ |--④-|
①口口④ |⑤-⑥-|
18
口口口③ |①-②-|
口口口⑥ |--③-|
②口口⑤ |--④-|
①口口④ |⑤-⑥-|
19
④口④口 |①-②-|
口①③口 |③-④-|
④口④口
口口②口

口⑤口⑤
口⑥口⑥
口⑤口⑤ |--⑤-|
口⑥口⑥ |--⑥-|
20
口⑤⑥⑦ |①-②-|
口口口口 |③-④-|
③口④口 |--⑤-|
①口②口 |⑥-⑦-|
21
口口口口 |①-②-|
口⑤⑥⑦ |③-④-|
口①口② |--⑤-|
口③口④ |⑥-⑦-|
22
口⑤⑥⑦ |①-②-|
口口口口 |③-④-|
①口②口 |--⑤-|
③口④口 |⑥-⑦-|
23
③口口口 |①-②-|
⑥口口口 |--③-|
⑤口口② |--④-|
④口口① |⑤-⑥-|
24
口口②③ |①-②-|
口口口口 |--③-|
口口③②
口口①口

口口口口
口口④⑤
口口口口 |--④-|
口口⑤④ |--⑤-|
25
②①口④ |--①-|
⑤⑥⑦⑧ |--②-|
①②口③ |③-④-|
口口口口 |⑤⑥⑦⑧|
26
⑤②②⑤ |①-②-|
口口口口 |③-④-|
口③③口 |--⑤-|
④①①④ |----|
27
口③②口 |①-②-|
①口④① |③-④-|
①口口① |--⑤-|
⑤口口⑥ |--⑥-|
28
口口①口 |--①-|
③口口口 |--②-|
口④口口 |--③-|
口口②口 |④---|
29
口①口口 |①-②-|
⑤口口② |③-④-|
③口口口 |--⑤-|
口口④⑥ |--⑥-|
30
⑨口②④ |--①-|
⑦口口⑥ |--②-|
⑤①口⑧ |③④⑤⑥|
③口口⑩ |⑦⑧⑨⑩|
31
口口④口 |①-②-|
口①口⑥ |③-④-|
⑤③口口 |--⑤-|
口口②口 |--⑥-|
32
口①口口 |--①-|
③口口口 |--②-|
口④口口 |--③-|
口口②口 |④---|
33
口①口口 |①-②-|
口口⑥② |③-④-|
③⑤口口 |--⑤-|
口口④口 |--⑥-|
34
①⑮⑩⑧ |①②③④|
③⑬⑫⑥ |⑤⑥⑦⑧|
⑤⑪⑭④ |⑨⑩⑪⑫|
⑦⑨⑯② |⑬⑭⑮⑯|
35
①口⑧⑤ |①-②-|
①口⑧⑤ |③④-⑤|
④⑦口口 |-⑥⑦-|
③⑥口② |⑧---|
36
①口⑧⑤ |①-②-|
①口⑧⑤ |③④-⑤|
④⑦口口 |-⑥⑦-|
③⑥口② |⑧---|
37
①口⑨⑤ |①-②-|
①口⑨⑤ |③④-⑤|
④⑦口⑧ |-⑥⑦-|
③⑥⑧② |⑧-⑨-|
38
①口⑨⑤ |①-②-|
①口⑨⑤ |③④-⑤|
④⑦口⑧ |-⑥⑦-|
③⑥⑧② |⑧-⑨-|
39
①①口口 |①-②-|
⑤口⑧④ |③-④-|
③口口⑥ |⑤-⑥-|
口⑦口② |⑦-⑧-|
40
①①⑦⑥ |①-②-|
⑤口口⑧ |③-④-|
③⑤②⑤ |⑤-⑥-|
口⑦③④ |⑦-⑧-|
41
⑤①口口 |①②③④|
口⑦④口 |⑤⑥⑦⑧|
③口②⑧
①口口⑥

口口⑭⑩
⑨口口⑫
口⑬⑯口 |⑨⑩⑪⑫|
⑮⑪⑬口 |⑬⑭⑮⑯|
42
口①口⑧ |①②③④|
⑦⑤②口 |⑤⑥⑦⑧|
③口口⑥
口口口④

口⑮⑫口
口口口⑩
口⑪⑭口 |⑨⑩⑪⑫|
⑬⑨⑯口 |⑬⑭⑮⑯|
43
①口口⑤ |①-②-|
④③③④ |③-④-|
①口口② |--⑤-|
⑤口口② |----|
44
口口⑥⑥ |①②③---|
口口④⑤ |④---|
口①②③ |⑤---|
口口⑤④ |⑥---|
45
⑤口⑤口 |①-②-|
③口③口 |③-④-|
①④①④ |--⑤-|
⑥②⑥② |--⑥-|
46
口口口口 |--①-|
口口③① |--②-|
口口②口 |--③-|
口口口④ |④---|
47
①④①④ |①-②-|
口口口③ |③-④-|
⑤口⑤口 |--⑤-|
②⑥②⑥ |--⑥-|
48
口口口口 |--①-|
口口①③ |--②-|
口口口② |--③-|
口口④口 |④---|
49
⑤口⑤口 |①-②-|
③口③口 |③-④-|
①④①④ |--⑤-|
⑥②⑥② |--⑥-|
50
③口④口 |--①-|
口口口① |--②-|
③口②⑤ |③-④-|
口口口口 |⑤---|
51
口口口④ |①-②-|
口①①③ |③-④-|
口口⑤口 |--⑤-|
口①②⑥ |--⑥-|
52
口口口口 |--①-|
口口①③ |--②-|
口口口② |--③-|
口口④口 |④---|
53
⑤口⑤口 |①-②-|
③口③口 |③-④-|
①④①④ |--⑤-|
⑥②⑥② |--⑥-|
54
口口口口 |--①-|
口口③① |--②-|
口口②口 |--③-|
口口口④ |④---|
55
①④①④ |①-②-|
口口口③ |③-④-|
⑤口⑤口 |--⑤-|
②⑥②⑥ |--⑥-|
56
口口口口 |--①-|
口口①③ |--②-|
口口口② |--③-|
口口④口 |④---|
57
口口⑤口 |①-②-|
口口③口 |③-④-|
口口①④ |--⑤-|
口口⑥② |--⑥-|
58
④②⑤口 |--①-|
口⑥口① |②-③-|
②④③⑥ |④-⑤-|
⑥口口口 |⑥---|
59
④口⑤⑦ |①-②-|
①⑥①③ |③-④-|
④口口口 |--⑤-|
⑥①②④ |⑥-⑦-|
60
口口⑥⑥ |①②③---|
口口④⑤ |④---|
口①②③ |⑤---|
口口⑤④ |⑥---|
61
口口⑧口 |①-②③|
口口⑥⑤ |-④-⑤|
①④②③ |--⑥-|
⑦①口口 |⑦-⑧-|
62
口④口⑦ |①-②③|
①⑨口⑪ |-④-⑤|
口口②⑤ |-⑥-⑦|
⑧⑥⑩③ |⑧⑨⑩⑪|
63
口④口口 |①-②③|
①口⑥⑧ |-④-⑤|
口口②⑤ |--⑥-|
⑦口口③ |⑦-⑧-|
64
口④口③ |①-②③|
⑧口口⑦ |-④-⑤|
①⑥口⑤ |-⑥-⑦|
口口②口 |⑧---|
65
口③口口 |①---|
口③口口 |②-③-|
口口②口
①口①②

口口⑪口
⑧口⑦口
④⑩口⑤ |④⑤⑥⑦|
口⑥⑨口 |⑧⑨⑩⑪|
66
①口口① |①---|
口③口③ |②-③-|
口口②口
口口口②

口口⑪⑨
⑧口⑦口
⑥⑩口⑤ |④⑤⑥⑦|
口④口口 |⑧⑨⑩⑪|
67
①②口口 |①-②-|
口③④口 |----|
③口口④ |③-④-|
①口②口 |----|
68
⑨③⑩⑨ |①②③④|
口口口② |⑤⑥⑦⑧|
⑦①⑥⑩ |⑨---|
⑤⑩④⑧ |⑩---|
69
口⑥口口 |①-②-|
①②③④ |③-④-|
口口口口 |--⑤-|
口⑤口口 |--⑥-|
70
口口①口 |--①-|
③口口④ |--②-|
口口口口 |--③-|
口口②口 |④---|
71
口④⑥口 |①-②-|
口③口口 |③-④-|
②口口口 |--⑤-|
①口⑤口 |--⑥-|
72
⑤口口⑤ |①-②-|
①④④② |③-④-|
③②口⑥ |--⑤-|
口口口口 |⑥---|
73
口⑥⑦口 |①-②-|
③④口⑤ |③④-⑤|
⑧口口⑧ |-⑥⑦-|
①口②口 |⑧---|
74
①⑥⑦⑤ |①-②-|
③口口口 |③④-⑤|
⑧④②⑨ |-⑥⑦-|
⑧口口⑨ |⑧-⑨-|
75
⑥口⑤⑤ |①-②-|
口②①① |③-④-|
口③④口 |⑤-⑥-|
⑦口口⑧ |⑦-⑧-|
76
口⑦⑧口 |①②③④|
⑨⑤⑥⑨ |⑤⑥⑦⑧|
⑩③④⑩ |⑨---|
口①②口 |⑩---|
77
②③⑦⑦ |①-②-|
④③⑤⑦ |③---|
口③⑦⑥ |④⑤⑥-|
①③⑦⑦ |⑦---|
78
⑤⑥口⑪ |①②③④|
⑦⑧⑨口 |⑤⑥⑦⑧|
③④⑪⑩ |⑨-⑩-|
①②口口 |⑪---|
79
④②口口 |①-②③|
口口口⑤ |④⑤⑥-|
①⑥口口
口①②③

口口⑨⑧
口口⑦口
⑩口口⑧ |⑦-⑧-|
⑩口口口 |⑨-⑩-|
80
④⑤口⑩ |①-②③|
①⑫⑧⑭ |④⑤⑥⑦|
口⑥②⑦ |⑧⑨-⑩|
⑪⑨⑬③ |⑪⑫⑬⑭|
81
④⑤②⑧ |①-②③|
①⑨⑪⑪ |④⑤⑥⑦|
①⑥②⑦ |⑧-⑨-|
⑩⑨口③ |⑩-⑪-|
82
⑦⑤③口 |①-②③|
⑩口口⑨ |④⑤-⑥|
①⑧口⑥ |⑦⑧-⑨|
口口②④ |⑩---|
83
口②口③ |①-②③|
口④口口 |④-⑤-|
口⑤②⑤
①①口口

口口⑧口
⑨口⑥口
口口口口 |⑥-⑦-|
⑨口⑦⑦ |⑧-⑨-|
84
①⑤⑫④ |①-②③|
口⑪⑬③ |④⑤-⑥|
⑩⑧②⑨ |⑦⑧-⑨|
口⑦口⑥ |⑩⑪⑫⑬|
85
①口⑩④ |①-②③|
⑨口口③ |④⑤-⑥|
口⑦⑧口 |⑦-⑧-|
口⑤②⑥ |⑨-⑩-|
86
⑩口⑩⑨ |①-②③|
口⑧②③ |④⑤-⑥|
①⑤口④ |⑦⑧-⑨|
⑦口口⑥ |⑩---|
87
⑦②口⑨ |①-②③|
口⑦⑥⑨ |④-⑤-|
①④②③ |⑥-⑦-|
⑧①⑤⑤ |⑧-⑨-|
88
口⑤④⑨ |①-②③|
①⑪⑦⑬ |④⑤-⑥|
口口②⑥ |⑦⑧-⑨|
⑩⑧⑫③ |⑩⑪⑫⑬|
89
⑤④口口 |①-②③|
①口口口 |④-⑤-|
①②②⑤
口口口③

口口⑦口
⑨⑧⑥⑨
口口口口 |⑥-⑦-|
口⑦口口 |⑧-⑨-|
90
口⑤口③ |①-②③|
⑩口⑦⑨ |④⑤-⑥|
①⑧④⑥ |⑦⑧-⑨|
口口②口 |⑩---|
91
②③口② |①-②-|
口④口口 |③-④-|
口口④口
①口①③

口口⑫口
⑨口⑧口
⑤⑪口⑥ |⑤⑥⑦⑧|
口⑦⑩口 |⑨⑩⑪⑫|
92
①③口① |①-②-|
口④口④ |③-④-|
口口③口
②口口②

口口⑫⑩
⑨口⑧口
⑦⑪口⑥ |⑤⑥⑦⑧|
口⑤口口 |⑨⑩⑪⑫|
93
①②口⑥ |①-②-|
口④⑤口 |--③-|
④口口⑤ |④-⑤-|
①③②口 |⑥---|
94
口③⑧口 |①②③-|
⑧口口② |④⑤⑥⑦|
⑥①⑤口 |⑧---|
④⑨⑨⑦ |⑨---|
95
口①口① |①---|
口①①① |----|
口①口① |----|
口口口口 |----|


不確定度: 0

最終更新:2013年12月29日 02:39