Broken
dj TAKA feat.AiMEE

ADVANCED

Level: 9
BPM: 148
Notes: 562

1
口口口口 |----|
口口口口 |----|
口口口口 |----|
口口口口 |----|
2
①口口② |①-②-|
③口口④ |③-④-|
口⑤⑥口 |⑤-⑥-|
口⑦⑧口 |⑦-⑧-|
3
口①②口 |①-②-|
口③④口 |③-④-|
⑤口口⑥ |⑤-⑥-|
⑦口口⑧ |⑦-⑧-|
4
①口口② |①-②-|
③口口④ |③-④-|
口⑤⑥口 |⑤-⑥-|
口⑦⑧口 |⑦-⑧-|
5
口①②口 |①-②-|
口③④口 |③-④-|
⑤口口⑥ |⑤-⑥-|
⑦口口⑧ |⑦-⑧-|
6
①②③口 |①②③-|
④⑤⑥口 |④⑤⑥-|
⑦⑧⑨口 |⑦⑧⑨-|
⑩⑪⑫口 |⑩⑪⑫-|
7
口③②① |①②③-|
口⑥⑤④ |④⑤⑥-|
口⑨⑧⑦ |⑦⑧⑨-|
口⑫⑪⑩ |⑩⑪⑫-|
8
①②③口 |①②③-|
④⑤⑥口 |④⑤⑥-|
⑦⑧⑨⑩ |⑦⑧⑨⑩|
⑪⑫⑬⑭ |⑪⑫⑬⑭|
9
①口口口 |①---|
口③②④ |②-③-|
⑨⑤⑥⑩ |④-⑤⑥|
口⑦⑧口 |⑦⑧⑨⑩|
10
⑩①②③ |①②③-|
④⑤⑥⑦ |④⑤⑥⑦|
口⑧⑨口 |-⑧⑨-|
口⑪⑫口 |⑩-⑪⑫|
11
口①②口 |-①②-|
③口口③ |③-④⑤|
⑨④⑤⑩ |-⑥⑦⑧|
口⑥⑦⑧ |-⑨⑩-|
12
口①②③ |①②③-|
④⑤⑥⑦ |④⑤⑥⑦|
⑩⑧⑨口 |-⑧⑨-|
口⑪⑫口 |⑩-⑪⑫|
13
③①②③ |-①②-|
口④⑤⑥ |③-④⑤|
口⑪⑫口 |⑥⑦⑧⑨|
⑦⑧⑨⑩ |⑩⑪⑫-|
14
⑩①②③ |①②③-|
④⑤⑥⑦ |④⑤⑥⑦|
口⑧⑨口 |-⑧⑨-|
口⑪⑫口 |⑩-⑪⑫|
15
口①②口 |-①②-|
③口口③ |③-④⑤|
⑨④⑤⑩ |-⑥⑦⑧|
口⑥⑦⑧ |-⑨⑩-|
16
口①②③ |①②③-|
④⑤⑥⑦ |④⑤⑥⑦|
⑩⑧⑨口 |-⑧⑨-|
口⑪⑫口 |⑩-⑪⑫|
17
③①②③ |-①②-|
口④⑤⑥ |③-④⑤|
⑪⑫⑬口 |⑥⑦⑧⑨|
⑦⑧⑨⑩ |⑩⑪⑫⑬|
18
②口口口 |①---|
口口口口 |----|
口口口① |②---|
口口口口 |----|
19
口口口口 |①---|
口口口① |----|
②口口口 |②---|
口口口口 |----|
20
口口口口 |①---|
口口口口 |----|
口口口口 |②---|
②口口① |----|
21
口⑤口口 |①---|
③⑤④④ |----|
③①①口 |②-③-|
口口②② |④-⑤-|
22
①口口① |①---|
口口口口 |----|
口口口口
口口口口

口口口②
口③口口
口口口② |----|
口③口口 |②-③-|
23
①①口口 |----|
口口口口 |----|
口口口口 |----|
口口②② |①-②-|
24
口口口口 |----|
①口口② |----|
①口口② |----|
口口口口 |①-②-|
25
口①①口 |----|
口②②口 |①---|
口③③口 |②---|
口口口口 |③---|
26
口口口口 |①---|
口②③口 |--②-|
口口口口 |③---|
②①①③ |----|
27
口口口口 |----|
③③③口 |①---|
口②②② |②---|
①①①口 |③---|
28
口①①① |①---|
口口口口 |----|
口口口口
口口口口

②口口②
口口口口
口②②口 |----|
③口口③ |②-③-|
29
③②①③ |----|
口①②口 |①---|
口口口口 |②---|
④口口④ |③-④-|
30
口口⑥口 |①-②-|
①⑤⑥② |③-④-|
③⑦⑧④ |⑤-⑥-|
口⑦⑧口 |⑦-⑧-|
31
①口口② |①-②-|
③口口④ |③-④-|
⑤⑦⑧⑥ |⑤-⑥-|
口⑦⑧口 |⑦-⑧-|
32
①③④② |①-②-|
①③④口 |③-④-|
⑤⑦⑧⑥ |⑤-⑥-|
口口⑧⑥ |⑦-⑧-|
33
①③口② |①-②-|
⑤③④口 |③-④-|
⑤⑦⑧⑥ |⑤-⑥-|
口⑦口口 |⑦-⑧-|
34
③①②④ |①-②-|
⑤①口⑥ |③-④-|
⑦口口⑧ |⑤-⑥-|
口口口口 |⑦-⑧-|
35
口口口口 |①-②-|
口③④口 |③-④-|
口口口口
①口口②

口口口口
⑤口口⑤
口⑤⑤⑥ |⑤-⑥-|
⑦口口⑧ |⑦-⑧-|
36
①①①① |①-②-|
口口②口 |③-④-|
口③④口 |⑤-⑥-|
⑦⑤⑥⑧ |⑦-⑧-|
37
口①②口 |①-②-|
口③④口 |③-④-|
口⑤⑥口 |⑤-⑥-|
口⑦⑧口 |⑦-⑧-|
38
①口⑧② |①-②-|
①③⑧④ |③-④-|
⑤⑦⑥④ |⑤-⑥-|
口⑦⑥口 |⑦-⑧-|
39
口①口口 |①-②-|
③口口② |③-④-|
口口口④
口口口口

口口口⑧
口口口⑧
⑤⑦⑥口 |⑤-⑥-|
口⑦⑥口 |⑦-⑧-|
40
①口②⑧ |①-②-|
⑤③口⑧ |③-④-|
⑦口⑥④ |⑤-⑥-|
口口口④ |⑦-⑧-|
41
③口④口 |①-②-|
③①口口 |③-④-|
口①口口
口口②口

口口口口
口⑦⑧⑥
⑤口⑧⑥ |⑤-⑥-|
⑤口口口 |⑦-⑧-|
42
①口口② |①-②-|
③口口口 |③-④-|
⑤口⑥④ |⑤-⑥-|
口⑦⑧④ |⑦-⑧-|
43
口①②口 |①-②-|
⑤③④⑥ |③-④-|
⑤⑦⑧口 |⑤-⑥-|
口⑦口口 |⑦-⑧-|
44
①③③① |①-②-|
口口口口 |--③-|
口口口口
②口口②

⑤口口⑥
口口口口
⑤口口⑥ |④---|
口④④口 |⑤-⑥-|
45
②①①口 |----|
口②③口 |--①-|
口①①③ |----|
口口口口 |②-③-|
46
口口④口 |①-②-|
口口口④ |③-④-|
①③口口
口①口②

⑤口口⑦
口⑧⑦口
⑧口⑥口 |⑤-⑥-|
口口口口 |⑦-⑧-|
47
口④口口 |①-②-|
④⑦⑤③ |③-④-|
口⑥⑧① |⑤-⑥-|
②口①口 |⑦-⑧-|
48
⑥③口⑥ |①-②-|
口⑦⑤口 |③-④-|
④⑧⑧④ |⑤-⑥-|
口①口② |⑦-⑧-|
49
口③④口 |①-②-|
口⑦⑧口 |③-④-|
⑤⑦⑧⑥ |⑤-⑥-|
⑤①②⑥ |⑦-⑧-|
50
①口口① |①---|
②口口③ |②-③-|
②口口③ |----|
口口口口 |----|
51
口口口口 |----|
口口口口 |----|
①口口① |①---|
口①①口 |----|
52
①口口① |①---|
口口口口 |----|
口①①口 |----|
口口口口 |----|
53
口口口① |----|
⑤④③② |----|
口口口口 |--①-|
口口口口 |②③④⑤|
54
口口口⑦ |①--②|
口口口口 |--③-|
口④口① |④-⑤⑥|
②⑥⑤③ |--⑦-|
55
口③口口 |①-②-|
口口⑤④ |③-④⑤|
①口口②
口口口口

口口口口
口⑥口口
⑧口口⑨ |⑥-⑦-|
口口口⑦ |⑧-⑨-|
56
①口口口 |①-②③|
口④⑤口 |-④⑤-|
口②③口
口口口口

⑧⑦⑥⑧
⑦口口⑥
口口口口 |⑥--⑦|
口口口口 |--⑧-|
57
口口口口 |①---|
③④⑤口 |②-③④|
②⑥⑦② |⑤-⑥-|
⑧①①口 |⑦-⑧-|
58
口口口① |①-②-|
②口口⑤ |③-④-|
⑥④口⑦ |⑤-⑥-|
口⑧③口 |⑦-⑧-|
59
②③④⑤ |①---|
⑥⑦⑧⑨ |②③④⑤|
⑩⑪⑫⑬ |⑥⑦⑧⑨|
口口①口 |⑩⑪⑫⑬|
60
口③④口 |①-②-|
口⑤口口 |③-④-|
口口⑥口 |⑤-⑥-|
①⑦⑧② |⑦-⑧-|
61
①⑧口① |①---|
②⑩⑨② |②---|
③口口③ |③--④⑤⑥|
④⑤⑥⑦ |⑦⑧⑨⑩|
62
①口口① |①---|
口口口口 |----|
口①①口 |----|
口口口口 |----|

不確定度: 0

最終更新:2014年03月16日 15:34